Скачать через торрент музыку Tal Farlow - Tal Farlow Quartet {RVG Edition} - 1954, APE бесплатно без регистрации torrent

Если у вас наблюдаются проблемы со скриншотами, переходом по ссылками, скачиванием торрентов - проблемы в блокировщике рекламы AdBlock. #хорошегоДня!


Статистика раздачи
Размер:  109 MB   |    Зарегистрирован:  5 лет 8 месяцев   |    .torrent скачан:  26 раз   |   
Раздают:  1  
   
Загрузка...
 
Автор Сообщение

Umakiro

avatar Umakiro


Tal Farlow - Tal Farlow Quartet {RVG Edition}

Жанр: Cool/Bop
Год выпуска диска: 1954
Производитель диска: Japan
Аудио кодек: APE
Тип рипа: image+.cue
Битрейт аудио: lossless
Продолжительность: 24:23
Лейбл: Blue Note
Источник: AvaxHome/jack335

Трэклист:
1. Lover
2. Flamingo
3. Splash
4. Rock 'N' Rye
5. All Through the Night
6. Tina

Музыканты:
Tal Farlow - guitar
Don Arnone - guitar
Clyde Lombardi - bass
Joe Morello - drums

Originally recorded on April 11, 1954 at the Van Gelder Studio
Remastered in 2000 by Rudy Van Gelder
 
Exact Audio Copy V0.99 prebeta 1 from 25. May 2007

EAC extraction logfile from 16. August 2007, 2:36

Tal Farlow / Tal Farlow Quartet (TOCJ)

Used drive : LITE-ON DVDRW LH-20A1P Adapter: 0 ID: 0

Read mode : SecureUtilize accurate stream : YesDefeat audio cache : YesMake use of C2 pointers : No

Read offset correction : 6Overread into Lead-In and Lead-Out : NoFill up missing offset samples with silence : YesDelete leading and trailing silent blocks : NoUsed interface : Installed external ASPI interface

Used output format : Monkey's Audio Lossless EncoderSelected bitrate : Normal Lossless CompressionQuality : HighAdd ID3 tag : YesCommand line compressor : C:\Program Files\Monkey's Audio\MAC.exe

TOC of the extracted CD

Track | Start | Length | Start sector | End sector---------------------------------------------------------1 | 0:00.00 | 4:06.09 | 0 | 184582 | 4:06.09 | 4:33.19 | 18459 | 389523 | 8:39.28 | 3:36.41 | 38953 | 551934 | 12:15.69 | 4:02.20 | 55194 | 733635 | 16:18.14 | 4:07.18 | 73364 | 919066 | 20:25.32 | 3:57.60 | 91907 | 109741

Range status and errors

Selected range

Filename E:\Image files\Guitar Image-26\Tal Farlow - Tal Farlow Quartet (TOCJ)\Tal Farlow - Tal Farlow Quartet (TOCJ).wav

Peak level 97.9 %Range quality 100.0 %Copy CRC AEACCB7ECopy OK

No errors occurred

End of status report


Трекер:  [ 28-Янв-2012 14:04 ]

  

Скачать .torrent

Размер .torrent файла 18 KB


Размер: 109 MB
Хэш (hash) релиза: 7b4d9aa18190f89a450044c75e45e3bc9abf1c9e

Еще никто не оставлял запись к записи скачать торрент Tal Farlow - Tal Farlow Quartet {RVG Edition} - 1954, APE . Будь первым!

!Обратная связь