Скачать через торрент музыку Stanley Turrentine - The Spoiler бесплатно без регистрации torrent

Если у вас наблюдаются проблемы со скриншотами, переходом по ссылками, скачиванием торрентов - проблемы в блокировщике рекламы AdBlock. #хорошегоДня!


Статистика раздачи
Размер:  250 MB   |    Зарегистрирован:  5 лет 8 месяцев   |    .torrent скачан:  38 раз   |   
Раздают:  1  
   
Загрузка...
 
Автор Сообщение

Umakiro

avatar Umakiro


Stanley Turrentine - The Spoiler

Исполнитель: Stanley Turrentine
Альбом: The Spoiler
Тип релиза: Студийная запись
Страна: USA
Лейбл: Blue Note
Дата выпуска: 1966
Жанр: Jazz
Формат: FLAC (image+cue)

Треклист:

01. The Magilla (6:06)
02. When The Sun Comes Out (6:01)
03. La Fiesta (5:05)
04. Sunny (7:23)
05. Maybe September (Theme from 'The Oscar') (4:46)
06. You're Gonna Hear From Me (5:21)
07. Lonesome Lover (4:39)
Exact Audio Copy V0.99 prebeta 3 from 28. July 2007

Отчёт EAC об извлечении, выполненном 2. октября 2008, 15:57

Stanley Turrentine / The Spoiler

Дисковод: _NEC DVD_RW ND-3540A Adapter: 2 ID: 0

Режим чтения : Достоверность
Использование точного потока : Да
Отключение кэша аудио : Да
Использование указателей C2 : Нет

Коррекция смещения при чтении : 48
Способность читать области Lead-in и Lead-out : Нет
Заполнение пропущенных сэмплов тишиной : Да
Удаление блоков с тишиной в начале и конце : Нет
При вычислениях CRC использовались нулевые сэмплы : Да
Интерфейс : Установленный внешний ASPI-интерфейс

Выходной формат : Пользовательский кодировщик
Выбранный битрейт : 768 kBit/s
Качество : Высокий
Добавление ID3-тэга : Да
Утилита сжатия : C:\Program Files\Exact Audio Copy\FLAC\FLAC.EXE
Дополнительные параметры : -6 -V -T "ARTIST=%a" -T "TITLE=%t" -T "ALBUM=%g" -T "DATE=%y" -T "TRACKNUMBER=%n" -T "GENRE=%m" -T "COMMENT=%e" %s -o %d

TOC извлечённого CD

Трек | Старт | Длительность | Начальный сектор | Конечный сектор
---------------------------------------------------------------------
1 | 0:00.00 | 6:06.26 | 0 | 27475
2 | 6:06.26 | 6:00.59 | 27476 | 54534
3 | 12:07.10 | 5:05.19 | 54535 | 77428
4 | 17:12.29 | 7:23.15 | 77429 | 110668
5 | 24:35.44 | 4:46.18 | 110669 | 132136
6 | 29:21.62 | 5:21.33 | 132137 | 156244
7 | 34:43.20 | 4:38.68 | 156245 | 177162

Характеристики диапазона извлечения и сообщения об ошибках

Выбранный диапазон

Имя файла C:\Documents and Settings\Миша\Мои документы\Stanley Turrentine - The Spoiler\Stanley Turrentine - The Spoiler.wav

Пиковый уровень 98.0 %
Качество диапазона 100.0 %
CRC копии 6C984244
Копирование... OK

Ошибок не произошло

AccurateRip: сводка

Трек 1 точное извлечение (доверие 3) [B929A39D]
Трек 2 точное извлечение (доверие 3) [EA2F65FB]
Трек 3 точное извлечение (доверие 3) [55C204DC]
Трек 4 точное извлечение (доверие 3) [ACD6D613]
Трек 5 точное извлечение (доверие 3) [00AD98EE]
Трек 6 точное извлечение (доверие 3) [9F1C4896]
Трек 7 точное извлечение (доверие 3) [24C9DF6F]

Все треки извлечены точно

Конец отчёта


Трекер:  [ 28-Янв-2012 13:58 ]

  

Скачать .torrent

Размер .torrent файла 20 KB


Размер: 250 MB
Хэш (hash) релиза: 2037c0ccca211180fe0365354cc6068dd7187d88

Еще никто не оставлял запись к записи скачать торрент Stanley Turrentine - The Spoiler . Будь первым!

!Обратная связь