Скачать через торрент музыку Stanley Turrentine - Dearly Beloved - 1961, FLAC бесплатно без регистрации torrent

Если у вас наблюдаются проблемы со скриншотами, переходом по ссылками, скачиванием торрентов - проблемы в блокировщике рекламы AdBlock. #хорошегоДня!


Статистика раздачи
Размер:  274 MB   |    Зарегистрирован:  5 лет 8 месяцев   |    .torrent скачан:  31 раз   |   
Раздают:  1  
   
Загрузка...
 
Автор Сообщение

Umakiro

avatar Umakiro


Stanley Turrentine - Dearly Beloved

Жанр: Jazz
Год выпуска : 1961 - RVG remaster 2008
Аудио кодек: FLAC
Тип рипа: tracks+.cue
Битрейт аудио: lossless
Продолжительность: 00:44:41
Признательность за рип: CarlV
1. Baia (5:32)
2. Wee Hour Theme (4:42)
3. My Shining Hour (6:52)
4. Troubles of the World (5:15)
5. Yesterdays (8:50)
6. Dearly Beloved (7:13)
7. Nothing Ever Changes My Love With You (6:17)
 
Exact Audio Copy V0.99 prebeta 4 from 23. January 2008

EAC extraction logfile from 11. November 2008, 6:20

Stanley Turrentine / Dearly Beloved

Used drive : SONY CD-RW CRX230EE Adapter: 4 ID: 1

Read mode : SecureUtilize accurate stream : YesDefeat audio cache : YesMake use of C2 pointers : No

Read offset correction : 6Overread into Lead-In and Lead-Out : NoFill up missing offset samples with silence : YesDelete leading and trailing silent blocks : NoNull samples used in CRC calculations : YesUsed interface : Installed external ASPI interfaceGap handling : Appended to previous track

Used output format : User Defined EncoderSelected bitrate : 128 kBit/sQuality : HighAdd ID3 tag : NoCommand line compressor : C:\Program Files\Exact Audio Copy\Flac\flac.exeAdditional command line options : -V -8 -T "artist=%a" -T "title=%t" -T "album=%g" -T "date=%y" -T "tracknumber=%n" -T "genre=%m" %s

TOC of the extracted CD

Track | Start | Length | Start sector | End sector --------------------------------------------------------- 1 | 0:00.00 | 5:32.06 | 0 | 24905 2 | 5:32.06 | 4:42.61 | 24906 | 46116 3 | 10:14.67 | 6:52.61 | 46117 | 77077 4 | 17:07.53 | 5:15.38 | 77078 | 100740 5 | 22:23.16 | 8:50.17 | 100741 | 140507 6 | 31:13.33 | 7:13.28 | 140508 | 173010 7 | 38:26.61 | 6:17.39 | 173011 | 201324

Track 1

Filename F:\Flac Rips\1\Stanley Turrentine - Dearly Beloved (1961) [FLAC] {RVG 2008}\01 - Baia.wav

Pre-gap length 0:00:02.00

Peak level 97.9 % Track quality 99.9 % Test CRC B9A3F95B Copy CRC B9A3F95B Track not present in AccurateRip database Copy OK

Track 2

Filename F:\Flac Rips\1\Stanley Turrentine - Dearly Beloved (1961) [FLAC] {RVG 2008}\02 - Wee Hour Theme.wav

Pre-gap length 0:00:03.05

Peak level 97.9 % Track quality 100.0 % Test CRC 768F36FA Copy CRC 768F36FA Track not present in AccurateRip database Copy OK

Track 3

Filename F:\Flac Rips\1\Stanley Turrentine - Dearly Beloved (1961) [FLAC] {RVG 2008}\03 - My Shining Hour.wav

Pre-gap length 0:00:03.25

Peak level 97.9 % Track quality 100.0 % Test CRC 40EC542D Copy CRC 40EC542D Track not present in AccurateRip database Copy OK

Track 4

Filename F:\Flac Rips\1\Stanley Turrentine - Dearly Beloved (1961) [FLAC] {RVG 2008}\04 - Troubles of the World.wav

Pre-gap length 0:00:03.92

Peak level 96.4 % Track quality 100.0 % Test CRC DF43E26B Copy CRC DF43E26B Track not present in AccurateRip database Copy OK

Track 5

Filename F:\Flac Rips\1\Stanley Turrentine - Dearly Beloved (1961) [FLAC] {RVG 2008}\05 - Yesterdays.wav

Pre-gap length 0:00:03.78

Peak level 97.9 % Track quality 100.0 % Test CRC 658FA681 Copy CRC 658FA681 Track not present in AccurateRip database Copy OK

Track 6

Filename F:\Flac Rips\1\Stanley Turrentine - Dearly Beloved (1961) [FLAC] {RVG 2008}\06 - Dearly Beloved.wav

Pre-gap length 0:00:02.77

Peak level 97.3 % Track quality 100.0 % Test CRC D0FEE9AB Copy CRC D0FEE9AB Track not present in AccurateRip database Copy OK

Track 7

Filename F:\Flac Rips\1\Stanley Turrentine - Dearly Beloved (1961) [FLAC] {RVG 2008}\07 - Nothing Ever Changes My Love With You.wav

Pre-gap length 0:00:02.48

Peak level 96.1 % Track quality 100.0 % Test CRC 3D45C0D6 Copy CRC 3D45C0D6 Track not present in AccurateRip database Copy OK

None of the tracks are present in the AccurateRip database

No errors occurred

End of status report
Stanley Turrentine - Primary Artist, Tenor Saxophone
Roy Brooks - Drums
Shirley Scott - Organ

Трекер:  [ 28-Янв-2012 13:57 ]

  

Скачать .torrent

Размер .torrent файла 12 KB


Размер: 274 MB
Хэш (hash) релиза: 52fe43650e9e2f2c65c4ba70d554dfbbebfe629b

Еще никто не оставлял запись к записи скачать торрент Stanley Turrentine - Dearly Beloved - 1961, FLAC . Будь первым!

!Обратная связь