Скачать через торрент музыку Sonny Rollins - A Night at the Village Vanguard {RVG Edition 1999} - 1957, FLAC бесплатно без регистрации torrent

Если у вас наблюдаются проблемы со скриншотами, переходом по ссылками, скачиванием торрентов - проблемы в блокировщике рекламы AdBlock. #хорошегоДня!


Статистика раздачи
Размер:  653 MB   |    Зарегистрирован:  5 лет 8 месяцев   |    .torrent скачан:  25 раз   |   
Раздают:  1  
   
Загрузка...
 
Автор Сообщение

Umakiro

avatar Umakiro


Sonny Rollins - A Night at the Village Vanguard {RVG Edition 1999}

Жанр: Bop, Hard Bop
Дата записи альбома: 1957
Год выпуска диска: 1999
Производитель диска: Blue Note Records RVG Edition 7243 4 99795 2 9
Тип записи: Live
Аудио кодек: FLAC
Тип рипа: tracks+.cue
Битрейт аудио: lossless
Продолжительность: 01:00:00 & 01:11:00
Источник: найдено в сети, релизер psuchris.

Трэклист:

Disc 1:

01. A Night In Tunisia (8:16) *
02. I've Got You Under My Skin (10:03)
03. A Night In Tunisia (evening take) (9:04)
04. Softly As In a Morning Sunrise (alternate take) (6:43)
05. Four (8:26)
06. Introduction (0:21)
07. Woody'n You (8:29)
08. Introduction 2 (0:37)
09. Old Devil Moon (8:22)

Disc 2:

01. What Is This Thing Called Love (14:04)
02. Softly As In A Morning Sunrise (8:03)
03. Sonnymoon For Two (8:47)
04. I Can't Get Started (4:55)
05. I'll Remember April (9:20)
06. Get Happy (9:09)
07. Striver's Row (5:59)
08. All The Things You Are (6:46)
09. Get Happy (short version) (4:41)

Состав:

Sonny Rollins - Tenor Saxophone
Donald Bailey *, Wilbur Ware - Bass
Pete La Roca *, Elvin Jones - Drums

Информация об альбоме (англ.) и аудио сэмплы на Allmusic.com и Amazon.com.

Produced by Alfrod Lion. Recorded on November 3, 1957 at the Village Vanguard, New York City. Original recording and 1999 remastering by Rudy Van Gelder. All transfers from analog to digital were made at 24-bit resolution.

Присутствуют сканы высокого разрешения, 300 dpi, jpg.
Некоторые треки auCDtect определил как MPEG, ниже скриншоты спектров "проблемных" треков.
 
EAC extraction logfile from 15. August 2007, 11:11 for CDSonny Rollins / A Night at the Village Vanguard (disc 1)

Used drive : _NEC DVD+-RW ND-6650A Adapter: 1 ID: 0Read mode : Secure with NO C2, accurate stream, disable cacheRead offset correction : 48Overread into Lead-In and Lead-Out : No

Used output format : C:\Program Files\Exact Audio Copy\flac-1.1.4-win\bin\flac.exe (User Defined Encoder) 192 kBit/s Additional command line options : # -8 -A tukey(0.25) -A gauss(0.1875) -b 4096 -V -T "artist=%a" -T "title=%t" -T "album=%g" -T "date=%y" -T "tracknumber=%n" -T "genre=%m" %s --sector-align

Other options : Fill up missing offset samples with silence : Yes Delete leading and trailing silent blocks : No Installed external ASPI interface

Track 1 Filename E:\Music\Sonny Rollins - A Night at the Village Vanguard 2cds (complete)\Disc 1\01 - Sonny Rollins - A Night In Tunisia.wav

Pre-gap length 0:00:02.00

Peak level 97.9 % Track quality 100.0 % Test CRC 7BBC0D0C Copy CRC 7BBC0D0C Copy OK

Track 2 Filename E:\Music\Sonny Rollins - A Night at the Village Vanguard 2cds (complete)\Disc 1\02 - Sonny Rollins - I've Got You Under My Skin.wav

Peak level 97.9 % Track quality 100.0 % Test CRC E54DE5A2 Copy CRC E54DE5A2 Copy OK

Track 3 Filename E:\Music\Sonny Rollins - A Night at the Village Vanguard 2cds (complete)\Disc 1\03 - Sonny Rollins - A Night In Tunisia (evening take).wav

Peak level 89.3 % Track quality 100.0 % Test CRC 176EBDB7 Copy CRC 176EBDB7 Copy OK

Track 4 Filename E:\Music\Sonny Rollins - A Night at the Village Vanguard 2cds (complete)\Disc 1\04 - Sonny Rollins - Softly As In a Morning Sunrise (alternate take).wav

Peak level 95.4 % Track quality 100.0 % Test CRC 82A694B8 Copy CRC 82A694B8 Copy OK

Track 5 Filename E:\Music\Sonny Rollins - A Night at the Village Vanguard 2cds (complete)\Disc 1\05 - Sonny Rollins - Four.wav

Peak level 97.9 % Track quality 100.0 % Test CRC 79BF9E34 Copy CRC 79BF9E34 Copy OK

Track 6 Filename E:\Music\Sonny Rollins - A Night at the Village Vanguard 2cds (complete)\Disc 1\06 - Sonny Rollins - Introduction.wav

Peak level 94.2 % Track quality 100.0 % Test CRC DBC6B944 Copy CRC DBC6B944 Copy OK

Track 7 Filename E:\Music\Sonny Rollins - A Night at the Village Vanguard 2cds (complete)\Disc 1\07 - Sonny Rollins - Woody 'N' You.wav

Peak level 97.9 % Track quality 100.0 % Test CRC BE5A7EBA Copy CRC BE5A7EBA Copy OK

Track 8 Filename E:\Music\Sonny Rollins - A Night at the Village Vanguard 2cds (complete)\Disc 1\08 - Sonny Rollins - Introduction (2).wav

Peak level 84.7 % Track quality 100.0 % Test CRC 64FE581C Copy CRC 64FE581C Copy OK

Track 9 Filename E:\Music\Sonny Rollins - A Night at the Village Vanguard 2cds (complete)\Disc 1\09 - Sonny Rollins - Old Devil Moon.wav

Peak level 96.1 % Track quality 100.0 % Test CRC 4265765D Copy CRC 4265765D Copy OK

No errors occured

End of status report
 
EAC extraction logfile from 15. August 2007, 11:53 for CDSonny Rollins / A Night at the Village Vanguard (disc 2)

Used drive : _NEC DVD+-RW ND-6650A Adapter: 1 ID: 0Read mode : Secure with NO C2, accurate stream, disable cacheRead offset correction : 48Overread into Lead-In and Lead-Out : No

Used output format : C:\Program Files\Exact Audio Copy\flac-1.1.4-win\bin\flac.exe (User Defined Encoder) 192 kBit/s Additional command line options : # -8 -A tukey(0.25) -A gauss(0.1875) -b 4096 -V -T "artist=%a" -T "title=%t" -T "album=%g" -T "date=%y" -T "tracknumber=%n" -T "genre=%m" %s --sector-align

Other options : Fill up missing offset samples with silence : Yes Delete leading and trailing silent blocks : No Installed external ASPI interface

Track 1 Filename E:\Music\Sonny Rollins - A Night at the Village Vanguard 2cds (complete)\Disc 2\01 - Sonny Rollins - What Is This Thing Called Love.wav

Pre-gap length 0:00:02.00

Peak level 97.9 % Track quality 99.9 % Test CRC F2CDDA86 Copy CRC F2CDDA86 Copy OK

Track 2 Filename E:\Music\Sonny Rollins - A Night at the Village Vanguard 2cds (complete)\Disc 2\02 - Sonny Rollins - Softly As In A Morning Sunrise.wav

Peak level 97.6 % Track quality 99.9 % Test CRC 3C0EDB29 Copy CRC 3C0EDB29 Copy OK

Track 3 Filename E:\Music\Sonny Rollins - A Night at the Village Vanguard 2cds (complete)\Disc 2\03 - Sonny Rollins - Sonnymoon For Two.wav

Peak level 97.8 % Track quality 100.0 % Test CRC 65B6DEED Copy CRC 65B6DEED Copy OK

Track 4 Filename E:\Music\Sonny Rollins - A Night at the Village Vanguard 2cds (complete)\Disc 2\04 - Sonny Rollins - I Can't Get Started.wav

Peak level 97.9 % Track quality 100.0 % Test CRC 3AE7C671 Copy CRC 3AE7C671 Copy OK

Track 5 Filename E:\Music\Sonny Rollins - A Night at the Village Vanguard 2cds (complete)\Disc 2\05 - Sonny Rollins - I'll Remember April.wav

Peak level 97.3 % Track quality 100.0 % Test CRC 50CA31ED Copy CRC 50CA31ED Copy OK

Track 6 Filename E:\Music\Sonny Rollins - A Night at the Village Vanguard 2cds (complete)\Disc 2\06 - Sonny Rollins - Get Happy.wav

Peak level 97.9 % Track quality 99.9 % Test CRC 0DB9D2B3 Copy CRC 0DB9D2B3 Copy OK

Track 7 Filename E:\Music\Sonny Rollins - A Night at the Village Vanguard 2cds (complete)\Disc 2\07 - Sonny Rollins - Striver's Row.wav

Peak level 97.6 % Track quality 100.0 % Test CRC 537D7B23 Copy CRC 537D7B23 Copy OK

Track 8 Filename E:\Music\Sonny Rollins - A Night at the Village Vanguard 2cds (complete)\Disc 2\08 - Sonny Rollins - All The Things You Are.wav

Peak level 97.9 % Track quality 100.0 % Test CRC C73F12FC Copy CRC C73F12FC Copy OK

Track 9 Filename E:\Music\Sonny Rollins - A Night at the Village Vanguard 2cds (complete)\Disc 2\09 - Sonny Rollins - Get Happy (short version).wav

Peak level 97.9 % Track quality 100.0 % Test CRC 4FBA6FF8 Copy CRC 4FBA6FF8 Copy OK

No errors occured

End of status report
 
REM GENRE JazzREM DISCID 720E2509REM COMMENT "ExactAudioCopy v0.95b3"PERFORMER "Sonny Rollins"TITLE "A Night at the Village Vanguard (disc 1)"FILE "01 - Sonny Rollins - A Night In Tunisia.wav" WAVE TRACK 01 AUDIO TITLE "A Night In Tunisia" PERFORMER "Sonny Rollins" FLAGS DCP INDEX 01 00:00:00FILE "02 - Sonny Rollins - I've Got You Under My Skin.wav" WAVE TRACK 02 AUDIO TITLE "I've Got You Under My Skin" PERFORMER "Sonny Rollins" FLAGS DCP INDEX 01 00:00:00FILE "03 - Sonny Rollins - A Night In Tunisia (evening take).wav" WAVE TRACK 03 AUDIO TITLE "A Night In Tunisia (evening take)" PERFORMER "Sonny Rollins" FLAGS DCP INDEX 01 00:00:00FILE "04 - Sonny Rollins - Softly As In a Morning Sunrise (alternate take).wav" WAVE TRACK 04 AUDIO TITLE "Softly As In a Morning Sunrise (alternate take)" PERFORMER "Sonny Rollins" FLAGS DCP INDEX 01 00:00:00FILE "05 - Sonny Rollins - Four.wav" WAVE TRACK 05 AUDIO TITLE "Four" PERFORMER "Sonny Rollins" FLAGS DCP INDEX 01 00:00:00FILE "06 - Sonny Rollins - Introduction.wav" WAVE TRACK 06 AUDIO TITLE "Introduction" PERFORMER "Sonny Rollins" FLAGS DCP INDEX 01 00:00:00FILE "07 - Sonny Rollins - Woody 'N' You.wav" WAVE TRACK 07 AUDIO TITLE "Woody 'N' You" PERFORMER "Sonny Rollins" FLAGS DCP INDEX 01 00:00:00FILE "08 - Sonny Rollins - Introduction (2).wav" WAVE TRACK 08 AUDIO TITLE "Introduction (2)" PERFORMER "Sonny Rollins" FLAGS DCP INDEX 01 00:00:00FILE "09 - Sonny Rollins - Old Devil Moon.wav" WAVE TRACK 09 AUDIO TITLE "Old Devil Moon" PERFORMER "Sonny Rollins" FLAGS DCP INDEX 01 00:00:00
 
REM DISCID 7510CF09REM COMMENT "ExactAudioCopy v0.95b3"PERFORMER "Sonny Rollins"TITLE "A Night at the Village Vanguard (disc 2)"FILE "01 - Sonny Rollins - What Is This Thing Called Love.wav" WAVE TRACK 01 AUDIO TITLE "What Is This Thing Called Love" PERFORMER "Sonny Rollins" FLAGS DCP INDEX 01 00:00:00FILE "02 - Sonny Rollins - Softly As In A Morning Sunrise.wav" WAVE TRACK 02 AUDIO TITLE "Softly As In A Morning Sunrise" PERFORMER "Sonny Rollins" FLAGS DCP INDEX 01 00:00:00FILE "03 - Sonny Rollins - Sonnymoon For Two.wav" WAVE TRACK 03 AUDIO TITLE "Sonnymoon For Two" PERFORMER "Sonny Rollins" FLAGS DCP INDEX 01 00:00:00FILE "04 - Sonny Rollins - I Can't Get Started.wav" WAVE TRACK 04 AUDIO TITLE "I Can't Get Started" PERFORMER "Sonny Rollins" FLAGS DCP INDEX 01 00:00:00FILE "05 - Sonny Rollins - I'll Remember April.wav" WAVE TRACK 05 AUDIO TITLE "I'll Remember April" PERFORMER "Sonny Rollins" FLAGS DCP INDEX 01 00:00:00FILE "06 - Sonny Rollins - Get Happy.wav" WAVE TRACK 06 AUDIO TITLE "Get Happy" PERFORMER "Sonny Rollins" FLAGS DCP INDEX 01 00:00:00FILE "07 - Sonny Rollins - Striver's Row.wav" WAVE TRACK 07 AUDIO TITLE "Striver's Row" PERFORMER "Sonny Rollins" FLAGS DCP INDEX 01 00:00:00FILE "08 - Sonny Rollins - All The Things You Are.wav" WAVE TRACK 08 AUDIO TITLE "All The Things You Are" PERFORMER "Sonny Rollins" FLAGS DCP INDEX 01 00:00:00FILE "09 - Sonny Rollins - Get Happy (short version).wav" WAVE TRACK 09 AUDIO TITLE "Get Happy (short version)" PERFORMER "Sonny Rollins" FLAGS DCP INDEX 01 00:00:00
1963600692 87550892 01 - Sonny Rollins - A Night In Tunisia.wav
3063510702 106451564 02 - Sonny Rollins - I've Got You Under My Skin.wav
1871012235 95928716 03 - Sonny Rollins - A Night In Tunisia (evening take).wav
2840753041 71122172 04 - Sonny Rollins - Softly As In a Morning Sunrise (alternate take).wav
587772482 89317244 05 - Sonny Rollins - Four.wav
3835824089 3645644 06 - Sonny Rollins - Introduction.wav
2841440945 89787644 07 - Sonny Rollins - Woody 'N' You.wav
4110804647 6470396 08 - Sonny Rollins - Introduction (2).wav
26718276 88536380 09 - Sonny Rollins - Old Devil Moon.wav

auCDtect: CD records authenticity detector, version 0.8.2
Copyright (c) 2004 Oleg Berngardt. All rights reserved.
Copyright (c) 2004 Alexander Djourik. All rights reserved.
------------------------------------------------------------
Processing file: [01 - Sonny Rollins - A Night In Tunisia.wav]

------------------------------------------------------------
This track looks like MPEG with probability 95%

------------------------------------------------------------
Processing file: [02 - Sonny Rollins - I've Got You Under My Skin.wav]

------------------------------------------------------------
This track looks like MPEG with probability 95%

------------------------------------------------------------
Processing file: [03 - Sonny Rollins - A Night In Tunisia (evening take).wav]

------------------------------------------------------------
This track looks like MPEG with probability 95%

------------------------------------------------------------
Processing file: [04 - Sonny Rollins - Softly As In a Morning Sunrise (alternate take).wav]

------------------------------------------------------------
This track looks like CDDA with probability 100%

------------------------------------------------------------
Processing file: [05 - Sonny Rollins - Four.wav]

------------------------------------------------------------
This track looks like CDDA with probability 100%

------------------------------------------------------------
Processing file: [06 - Sonny Rollins - Introduction.wav]

------------------------------------------------------------
This track looks like CDDA with probability 100%

------------------------------------------------------------
Processing file: [07 - Sonny Rollins - Woody 'N' You.wav]

------------------------------------------------------------
This track looks like MPEG with probability 95%

------------------------------------------------------------
Processing file: [08 - Sonny Rollins - Introduction (2).wav]

------------------------------------------------------------
This track looks like CDDA with probability 43%

------------------------------------------------------------
Processing file: [09 - Sonny Rollins - Old Devil Moon.wav]

------------------------------------------------------------
This track looks like CDDA with probability 100%

------------------------------------------------------------
Final Conclusion:
------------------------------------------------------------
These tracks looks like CDDA with probability 100%
1655941358 148836956 01 - Sonny Rollins - What Is This Thing Called Love.wav
626079280 85227116 02 - Sonny Rollins - Softly As In A Morning Sunrise.wav
596075827 92889932 03 - Sonny Rollins - Sonnymoon For Two.wav
1685290398 52026284 04 - Sonny Rollins - I Can't Get Started.wav
1025436307 98861660 05 - Sonny Rollins - I'll Remember April.wav
2777701439 96761324 06 - Sonny Rollins - Get Happy.wav
1627984306 63334700 07 - Sonny Rollins - Striver's Row.wav
2979139582 71641964 08 - Sonny Rollins - All The Things You Are.wav
3148992097 49500236 09 - Sonny Rollins - Get Happy (short version).wav

auCDtect: CD records authenticity detector, version 0.8.2
Copyright (c) 2004 Oleg Berngardt. All rights reserved.
Copyright (c) 2004 Alexander Djourik. All rights reserved.
------------------------------------------------------------
Processing file: [01 - Sonny Rollins - What Is This Thing Called Love.wav]

------------------------------------------------------------
This track looks like CDDA with probability 100%

------------------------------------------------------------
Processing file: [02 - Sonny Rollins - Softly As In A Morning Sunrise.wav]

------------------------------------------------------------
This track looks like CDDA with probability 100%

------------------------------------------------------------
Processing file: [03 - Sonny Rollins - Sonnymoon For Two.wav]

------------------------------------------------------------
This track looks like MPEG with probability 95%

------------------------------------------------------------
Processing file: [04 - Sonny Rollins - I Can't Get Started.wav]

------------------------------------------------------------
This track looks like CDDA with probability 100%

------------------------------------------------------------
Processing file: [05 - Sonny Rollins - I'll Remember April.wav]

------------------------------------------------------------
This track looks like MPEG with probability 95%

------------------------------------------------------------
Processing file: [06 - Sonny Rollins - Get Happy.wav]

------------------------------------------------------------
This track looks like MPEG with probability 95%

------------------------------------------------------------
Processing file: [07 - Sonny Rollins - Striver's Row.wav]

------------------------------------------------------------
This track looks like MPEG with probability 95%

------------------------------------------------------------
Processing file: [08 - Sonny Rollins - All The Things You Are.wav]

------------------------------------------------------------
This track looks like MPEG with probability 95%

------------------------------------------------------------
Processing file: [09 - Sonny Rollins - Get Happy (short version).wav]

------------------------------------------------------------
This track looks like MPEG with probability 95%

------------------------------------------------------------
Final Conclusion:
------------------------------------------------------------
These tracks looks like CDDA with probability 100%


Трекер:  [ 28-Янв-2012 13:57 ]

  

Скачать .torrent

Размер .torrent файла 16 KB


Размер: 653 MB
Хэш (hash) релиза: 48a01fe39ba54100c35ef1b1d6fc30d91ad5107f

Еще никто не оставлял запись к записи скачать торрент Sonny Rollins - A Night at the Village Vanguard {RVG Edition 1999} - 1957, FLAC . Будь первым!

!Обратная связь