Скачать через торрент музыку Sonny Rollins - Newks Time - 1957 бесплатно без регистрации torrent

Если у вас наблюдаются проблемы со скриншотами, переходом по ссылками, скачиванием торрентов - проблемы в блокировщике рекламы AdBlock. #хорошегоДня!


Статистика раздачи
Размер:  221 MB   |    Зарегистрирован:  5 лет 8 месяцев   |    .torrent скачан:  33 раза   |   
Раздают:  1  
   
Загрузка...
 
Автор Сообщение

Umakiro

avatar Umakiro


Sonny Rollins - Newk's Time

Жанр: Jazz, Hard Bop
Оригинальная запись: 1957
Год выпуска диска: 1990
Производитель диска: Capitol Records, Inc. (CDP 7 84001 2)
Аудио кодек: WAVPack
Тип рипа: image+.cue
Битрейт аудио: lossless
Продолжительность: 34:33
Источник: Собственные рипы

Треклист:

1. Tune Up - 5:42
2. Asiatic Raes - 5:55
3. Wonderful! Wonderful! - 5:55
4. The Surrey With the Fringe on Top - 6:30
5. Blues for Philly Joe - 6:39
6. Namely You - 3:17

Доп. информация:

МУЗЫКАНТЫ:
Sonny Rollins - Tenor Saxophone
Wynton Kelly - Piano
Doug Watkins - Bass
Philly Joe Jones - Drums
 
Exact Audio Copy V0.99 prebeta 4 from 23. January 2008

EAC extraction logfile from 17. January 2009, 19:30

Sonny Rollins / Newk's Time

Used drive : HL-DT-STDVDRAM GSA-4167B Adapter: 0 ID: 2

Read mode : SecureUtilize accurate stream : YesDefeat audio cache : YesMake use of C2 pointers : No

Read offset correction : 667Overread into Lead-In and Lead-Out : NoFill up missing offset samples with silence : YesDelete leading and trailing silent blocks : NoNull samples used in CRC calculations : YesUsed interface : Installed external ASPI interface

Used output format : User Defined EncoderSelected bitrate : 128 kBit/sQuality : HighAdd ID3 tag : NoCommand line compressor : G:\Program Files\Exact Audio Copy\wavpack.exeAdditional command line options : -hm -w "Title=%t" -w "Artist=%a" -w "Year=%y" -w "Genre=%m" %s %d

TOC of the extracted CD

Track | Start | Length | Start sector | End sector --------------------------------------------------------- 1 | 0:00.37 | 5:47.63 | 37 | 26124 2 | 5:48.25 | 5:59.55 | 26125 | 53104 3 | 11:48.05 | 6:03.07 | 53105 | 80336 4 | 17:51.12 | 6:33.55 | 80337 | 109866 5 | 24:24.67 | 6:47.28 | 109867 | 140419 6 | 31:12.20 | 3:20.70 | 140420 | 155489

Range status and errors

Selected range

Filename F:\WAV\Sonny Rollins - Newk's Time.wav

Peak level 77.1 % Range quality 100.0 % Test CRC 0DB5849E Copy CRC 0DB5849E Copy OK

No errors occurred

AccurateRip summary

Track 1 accurately ripped (confidence 4) [60887448]Track 2 accurately ripped (confidence 4) [E623591B]Track 3 accurately ripped (confidence 4) [35459B72]Track 4 accurately ripped (confidence 4) [C09B201B]Track 5 accurately ripped (confidence 4) [BA204A7E]Track 6 accurately ripped (confidence 4) [0575F442]

All tracks accurately ripped

End of status report


Трекер:  [ 28-Янв-2012 13:56 ]

  

Скачать .torrent

Размер .torrent файла 18 KB


Размер: 221 MB
Хэш (hash) релиза: d27a69616cfb8efa52138cbcb3cd484bd934a06f

Еще никто не оставлял запись к записи скачать торрент Sonny Rollins - Newks Time - 1957 . Будь первым!

!Обратная связь