Скачать через торрент музыку Sonny Rollins - Sonny Rollins: Volume Two бесплатно без регистрации torrent

Если у вас наблюдаются проблемы со скриншотами, переходом по ссылками, скачиванием торрентов - проблемы в блокировщике рекламы AdBlock. #хорошегоДня!


Статистика раздачи
Размер:  280 MB   |    Зарегистрирован:  5 лет 8 месяцев   |    .torrent скачан:  28 раз   |   
Раздают:  1  
   
Загрузка...
 
Автор Сообщение

Umakiro

avatar Umakiro


Sonny Rollins: Volume Two
Жанр: Hard Bop
Год выпуска диска: 1999
Производитель диска: Blue Note: RVG Edition (7243 4 97809 2 7)
Аудио кодек: FLAC
Тип рипа: tracks+.cue
Битрейт аудио: lossless
Продолжительность: 0:40:56
Источник: What.CD / stones2621
Трэклист:
01. Why Don't I (5:45)
02. Wail March (6:11)
03. Misterioso (9:24)
04. Reflections (7:03)
05. You Stepped Out Of A Dream (6:24)
06. Poor Butterfly (6:08)

J.J. Johnson - trombone
Sonny Rollins - tenor saxophone
Horace Silver, Thelonious Monk - piano
Paul Chambers - bass
Art Blakey - drums

Recorded on April 14, 1957 at the Van Gelder Studios, Hackensack, New Jersey
.
Exact Audio Copy V0.99 prebeta 4 from 23. January 2008

EAC extraction logfile from 29. April 2009, 16:47

Sonny Rollins / Volume Two

Used drive : HL-DT-STDVDRAM GH15F Adapter: 1 ID: 0

Read mode : Secure
Utilize accurate stream : Yes
Defeat audio cache : Yes
Make use of C2 pointers : No

Read offset correction : 667
Overread into Lead-In and Lead-Out : No
Fill up missing offset samples with silence : Yes
Delete leading and trailing silent blocks : No
Null samples used in CRC calculations : Yes
Used interface : Native Win32 interface for Win NT & 2000
Gap handling : Appended to previous track

Used output format : Internal WAV Routines
Sample format : 44.100 Hz; 16 Bit; Stereo

TOC of the extracted CD

Track | Start | Length | Start sector | End sector
---------------------------------------------------------
1 | 0:00.00 | 5:45.30 | 0 | 25904
2 | 5:45.30 | 6:10.42 | 25905 | 53696
3 | 11:55.72 | 9:24.24 | 53697 | 96020
4 | 21:20.21 | 7:03.19 | 96021 | 127764
5 | 28:23.40 | 6:24.08 | 127765 | 156572
6 | 34:47.48 | 6:08.32 | 156573 | 184204

Track 1

Filename J:\Eac Rips\Sonny Rollins - 1957 - Volume Two\01 - Why Don't I.wav

Pre-gap length 0:00:02.00

Peak level 97.9 %
Track quality 100.0 %
Test CRC FA772A7F
Copy CRC FA772A7F
Accurately ripped (confidence 5) [A61A8DC3]
Copy OK

Track 2

Filename J:\Eac Rips\Sonny Rollins - 1957 - Volume Two\02 - Wail March.wav

Pre-gap length 0:00:02.80

Peak level 97.9 %
Track quality 99.9 %
Test CRC 9AE932A4
Copy CRC 9AE932A4
Accurately ripped (confidence 5) [B143CD0A]
Copy OK

Track 3

Filename J:\Eac Rips\Sonny Rollins - 1957 - Volume Two\03 - Misterioso.wav

Pre-gap length 0:00:02.21

Peak level 97.9 %
Track quality 100.0 %
Test CRC 5DDE6452
Copy CRC 5DDE6452
Accurately ripped (confidence 5) [5D4DDFC0]
Copy OK

Track 4

Filename J:\Eac Rips\Sonny Rollins - 1957 - Volume Two\04 - Reflections.wav

Pre-gap length 0:00:03.62

Peak level 97.9 %
Track quality 100.0 %
Test CRC 42A8BF9B
Copy CRC 42A8BF9B
Accurately ripped (confidence 5) [9111281A]
Copy OK

Track 5

Filename J:\Eac Rips\Sonny Rollins - 1957 - Volume Two\05 - You Stepped Out of a Dream.wav

Pre-gap length 0:00:03.49

Peak level 97.9 %
Track quality 100.0 %
Test CRC CE520BF8
Copy CRC CE520BF8
Accurately ripped (confidence 5) [978BFF81]
Copy OK

Track 6

Filename J:\Eac Rips\Sonny Rollins - 1957 - Volume Two\06 - Poor Butterfly.wav

Pre-gap length 0:00:03.13

Peak level 97.9 %
Track quality 100.0 %
Test CRC 019EEC7F
Copy CRC 019EEC7F
Accurately ripped (confidence 5) [744BE316]
Copy OK

All tracks accurately ripped

No errors occurred

End of status report
 
REM GENRE Jazz
REM DATE 1957
REM DISCID 4C099806
REM COMMENT "ExactAudioCopy v0.99pb4"
FILE "01 - Why Don't I.wav" WAVE
TRACK 01 AUDIO
FLAGS DCP
INDEX 01 00:00:00
TRACK 02 AUDIO
FLAGS DCP
INDEX 00 05:42:45
FILE "02 - Wail March.wav" WAVE
INDEX 01 00:00:00
TRACK 03 AUDIO
FLAGS DCP
INDEX 00 06:08:26
FILE "03 - Misterioso.wav" WAVE
INDEX 01 00:00:00
TRACK 04 AUDIO
FLAGS DCP
INDEX 00 09:20:52
FILE "04 - Reflections.wav" WAVE
INDEX 01 00:00:00
TRACK 05 AUDIO
FLAGS DCP
INDEX 00 06:59:57
FILE "05 - You Stepped Out of a Dream.wav" WAVE
INDEX 01 00:00:00
TRACK 06 AUDIO
FLAGS DCP
INDEX 00 06:20:73
FILE "06 - Poor Butterfly.wav" WAVE
INDEX 01 00:00:00
 


Трекер:  [ 28-Янв-2012 13:55 ]

  

Скачать .torrent

Размер .torrent файла 12 KB


Размер: 280 MB
Хэш (hash) релиза: 254417fe0ed9f56aa68881a5469845caf9f8d72f

Еще никто не оставлял запись к записи скачать торрент Sonny Rollins - Sonny Rollins: Volume Two . Будь первым!

!Обратная связь