Скачать через торрент музыку Sonny Rollins - Sonny Rollins: Volume One бесплатно без регистрации torrent

Если у вас наблюдаются проблемы со скриншотами, переходом по ссылками, скачиванием торрентов - проблемы в блокировщике рекламы AdBlock. #хорошегоДня!


Статистика раздачи
Размер:  241 MB   |    Зарегистрирован:  5 лет 8 месяцев   |    .torrent скачан:  32 раза   |   
Раздают:  1  
   
Загрузка...
 
Автор Сообщение

Umakiro

avatar Umakiro


Sonny Rollins: Volume One
Жанр: Hard Bop
Год выпуска диска: 2003
Производитель диска: Blue Note: RVG Edition (7243 5 91724 2 2)
Аудио кодек: FLAC
Тип рипа: tracks+.cue
Битрейт аудио: lossless
Продолжительность: 0:40:48
Трэклист:
01. Decision (8:01)
02. Bluesnote (6:59)
03. How Are Things In Glocca Morra (6:18)
04. Plain Jane (9:56)
05. Sonnysphere (9:35)

Donald Byrd - trumpet
Sonny Rollins - tenor sax
Wynton Kelly - piano
Gene Ramey - bass
Max Roach - drums

Recorded on December 16, 1956 at the Van Gelder Studios, Hackensack, New Jersey

За релиз спасибо uff
.
 
EAC extraction logfile from 9. October 2005, 20:38 for CDSonny Rollins / Volume One

Used drive : PLEXTOR DVDR PX-716A Adapter: 0 ID: 0Read mode : Secure with NO C2, accurate stream, disable cacheRead offset correction : 30Overread into Lead-In and Lead-Out : No

Used output format : Internal WAV Routines 44.100 Hz; 16 Bit; Stereo

Other options : Fill up missing offset samples with silence : Yes Delete leading and trailing silent blocks : No Native Win32 interface for Win NT & 2000

Track 1 Filename F:\STUFF\BTMUSIC\mut\Sonny Rollins - Volume One (1956) [FLAC] {Blue Note RVG Edition 2003}\01 - Decision.wav

Pre-gap length 0:00:02.00

Peak level 97.9 % Track quality 100.0 % Test CRC 72453DC2 Copy CRC 72453DC2 Copy OK

Track 2 Filename F:\STUFF\BTMUSIC\mut\Sonny Rollins - Volume One (1956) [FLAC] {Blue Note RVG Edition 2003}\02 - Bluesnote.wav

Pre-gap length 0:00:02.32

Peak level 97.9 % Track quality 99.9 % Test CRC B7C05310 Copy CRC B7C05310 Copy OK

Track 3 Filename F:\STUFF\BTMUSIC\mut\Sonny Rollins - Volume One (1956) [FLAC] {Blue Note RVG Edition 2003}\03 - How are things in Glocca Morra.wav

Pre-gap length 0:00:02.62

Peak level 97.1 % Track quality 99.9 % Test CRC 2C292448 Copy CRC 2C292448 Copy OK

Track 4 Filename F:\STUFF\BTMUSIC\mut\Sonny Rollins - Volume One (1956) [FLAC] {Blue Note RVG Edition 2003}\04 - Plain Jane.wav

Pre-gap length 0:00:02.50

Peak level 97.9 % Track quality 99.9 % Test CRC 51B382CC Copy CRC 51B382CC Copy OK

Track 5 Filename F:\STUFF\BTMUSIC\mut\Sonny Rollins - Volume One (1956) [FLAC] {Blue Note RVG Edition 2003}\05 - Sonnysphere.wav

Pre-gap length 0:00:02.81

Peak level 97.9 % Track quality 100.0 % Test CRC 829D9176 Copy CRC 829D9176 Copy OK

No errors occured

End of status report
 
REM GENRE JazzREM DATE 2003REM DISCID 4C115606REM COMMENT "ExactAudioCopy v0.95b2"PERFORMER "Sonny Rollins"TITLE "Volume One"FILE "01 - Decision.wav" WAVE TRACK 01 AUDIO TITLE "Decision" PERFORMER "Sonny Rollins" INDEX 01 00:00:00 TRACK 02 AUDIO TITLE "Bluesnote" PERFORMER "Sonny Rollins" INDEX 00 07:58:34FILE "02 - Bluesnote.wav" WAVE INDEX 01 00:00:00 TRACK 03 AUDIO TITLE "How are things in Glocca Morra" PERFORMER "Sonny Rollins" INDEX 00 06:56:09FILE "03 - How are things in Glocca Morra.wav" WAVE INDEX 01 00:00:00 TRACK 04 AUDIO TITLE "Plain Jane" PERFORMER "Sonny Rollins" INDEX 00 06:15:28FILE "04 - Plain Jane.wav" WAVE INDEX 01 00:00:00 TRACK 05 AUDIO TITLE "Sonnysphere" PERFORMER "Sonny Rollins" INDEX 00 09:53:32FILE "05 - Sonnysphere.wav" WAVE INDEX 01 00:00:00


Трекер:  [ 28-Янв-2012 13:55 ]

  

Скачать .torrent

Размер .torrent файла 20 KB


Размер: 241 MB
Хэш (hash) релиза: c1d07e15b23f943d5794e53c1ab72fd20ed6957b

Еще никто не оставлял запись к записи скачать торрент Sonny Rollins - Sonny Rollins: Volume One . Будь первым!

!Обратная связь