Скачать через торрент музыку Sonny Clark - Dial "S" for Sonny {RVG Edition} - 1957, FLAC бесплатно без регистрации torrent

Если у вас наблюдаются проблемы со скриншотами, переходом по ссылками, скачиванием торрентов - проблемы в блокировщике рекламы AdBlock. #хорошегоДня!


Статистика раздачи
Размер:  367 MB   |    Зарегистрирован:  5 лет 8 месяцев   |    .torrent скачан:  26 раз   |   
Раздают:  1  
   
Загрузка...
 
Автор Сообщение

Umakiro

avatar Umakiro


Sonny Clark - Dial "S" for Sonny {RVG Edition}

Жанр: Hard Bop
Год выпуска диска: 1957
Производитель диска: UK
Аудио кодек: FLAC
Тип рипа: tracks+.cue
Битрейт аудио: lossless
Продолжительность: 46:16
Лейбл: Blue Note
Источник: eD2K

Трэклист:
1 Dial S For Sonny
2 Bootin’ It (Stereo Take)
3 It Could Happen To You
4 Sonny’s Mood
5 Shoutin’ On A Riff
6 Love Walked In
7 Bootin’ It (Mono Take)

Музыканты:
Sonny Clark, piano
Art Farmer, trumpet
Hank Mobley, tenor sax
Curtis Fuller, trombone
Wilbur Ware, bass
Louis Hayes, drums

Originally recorded on July 21, 1957 at the Van Gelder Studio, Hackensack, New Jersey
Remastered in 2004 by Rudy Van Gelder
 
EAC extraction logfile from 30. July 2005, 13:55 for CDSonny Clark / Dial S for Sonny (RVG Edition - 2005)

Used drive : PLEXTOR CD-R PX-W4824A Adapter: 1 ID: 0Read mode : Secure with NO C2, accurate stream, disable cacheRead offset correction : 98Overread into Lead-In and Lead-Out : Yes

Used output format : C:\Programme\FLAC\flac.exe (User Defined Encoder) 320 kBit/s Additional command line options : -8 -V -T "artist=%a" -T "title=%t" -T "album=%g" -T "date=%y" -T "tracknumber=%n" -T "genre=%m" -T "comment=Blue Note Records - The Rudy Van Gelder Edition - 7243 8 75338 2 0" %s

Other options : Fill up missing offset samples with silence : Yes Delete leading and trailing silent blocks : No Installed external ASPI interface

Track 1 Filename C:\Upload_Geplant\Sonny Clark - Dial S for Sonny (1957) [FLAC] {Blue Note - RVG Edition - 2005}\01 - Dial S For Sonny.wav

Pre-gap length 0:00:02.00

Peak level 97.9 % Track quality 100.0 % Test CRC D186CD16 Copy CRC D186CD16 Copy OK

Track 2 Filename C:\Upload_Geplant\Sonny Clark - Dial S for Sonny (1957) [FLAC] {Blue Note - RVG Edition - 2005}\02 - Bootin' It (Stereo Take).wav

Pre-gap length 0:00:02.76

Peak level 97.9 % Track quality 100.0 % Test CRC 2FCFCC8C Copy CRC 2FCFCC8C Copy OK

Track 3 Filename C:\Upload_Geplant\Sonny Clark - Dial S for Sonny (1957) [FLAC] {Blue Note - RVG Edition - 2005}\03 - It Could Happen To You.wav

Pre-gap length 0:00:03.86

Peak level 97.9 % Track quality 100.0 % Test CRC 9A68D1FF Copy CRC 9A68D1FF Copy OK

Track 4 Filename C:\Upload_Geplant\Sonny Clark - Dial S for Sonny (1957) [FLAC] {Blue Note - RVG Edition - 2005}\04 - Sonny's Mood.wav

Pre-gap length 0:00:02.78

Peak level 97.9 % Track quality 100.0 % Test CRC 1579FE4E Copy CRC 1579FE4E Copy OK

Track 5 Filename C:\Upload_Geplant\Sonny Clark - Dial S for Sonny (1957) [FLAC] {Blue Note - RVG Edition - 2005}\05 - Shoutin' On A Riff.wav

Pre-gap length 0:00:02.33

Peak level 97.9 % Track quality 100.0 % Test CRC BDC816DF Copy CRC BDC816DF Copy OK

Track 6 Filename C:\Upload_Geplant\Sonny Clark - Dial S for Sonny (1957) [FLAC] {Blue Note - RVG Edition - 2005}\06 - Love Walked In.wav

Pre-gap length 0:00:03.14

Peak level 97.9 % Track quality 100.0 % Test CRC A0A2BAEA Copy CRC A0A2BAEA Copy OK

Track 7 Filename C:\Upload_Geplant\Sonny Clark - Dial S for Sonny (1957) [FLAC] {Blue Note - RVG Edition - 2005}\07 - Bootin' It (Mono Take).wav

Pre-gap length 0:00:02.61

Peak level 97.9 % Track quality 99.9 % Test CRC D0E4E78C Copy CRC D0E4E78C Copy OK

No errors occured

End of status report
 
AUDIOCHECKER v1.2 - by Dester - opdester@freemail.hu~~~~~~~~~~~~~~~~~

1 -===- E:\Up-Down\Sonny Clark - Dial S for Sonny\01 - Dial S For Sonny.flac Extracted successfully Conclusion: This track looks like CDDA with probability 100%

2 -===- E:\Up-Down\Sonny Clark - Dial S for Sonny\02 - Bootin' It (Stereo Take).flac Extracted successfully Conclusion: This track looks like CDDA with probability 100%

3 -===- E:\Up-Down\Sonny Clark - Dial S for Sonny\03 - It Could Happen To You.flac Extracted successfully Conclusion: This track looks like CDDA with probability 100%

4 -===- E:\Up-Down\Sonny Clark - Dial S for Sonny\04 - Sonny's Mood.flac Extracted successfully Conclusion: This track looks like CDDA with probability 100%

5 -===- E:\Up-Down\Sonny Clark - Dial S for Sonny\05 - Shoutin' On A Riff.flac Extracted successfully Conclusion: This track looks like CDDA with probability 100%

6 -===- E:\Up-Down\Sonny Clark - Dial S for Sonny\06 - Love Walked In.flac Extracted successfully Conclusion: This track looks like CDDA with probability 100%

7 -===- E:\Up-Down\Sonny Clark - Dial S for Sonny\07 - Bootin' It (Mono Take).flac Extracted successfully Conclusion: This track looks like CDDA with probability 100%


Трекер:  [ 28-Янв-2012 13:55 ]

  

Скачать .torrent

Размер .torrent файла 15 KB


Размер: 367 MB
Хэш (hash) релиза: 9444d4bab2c2369a798481c079aa9a490475a5a0

Еще никто не оставлял запись к записи скачать торрент Sonny Clark - Dial "S" for Sonny {RVG Edition} - 1957, FLAC . Будь первым!

!Обратная связь