Скачать через торрент музыку Sonny Clark Trio - Sonny Clark Trio {RVG Edition} - 1957, APE бесплатно без регистрации torrent

Если у вас наблюдаются проблемы со скриншотами, переходом по ссылками, скачиванием торрентов - проблемы в блокировщике рекламы AdBlock. #хорошегоДня!


Статистика раздачи
Размер:  337 MB   |    Зарегистрирован:  5 лет 8 месяцев   |    .torrent скачан:  21 раз   |   
Раздают:  1  
   
Загрузка...
 
Автор Сообщение

Umakiro

avatar Umakiro


Sonny Clark Trio - Sonny Clark Trio {RVG Edition}

Жанр: Bop/Hard Bop
Год выпуска диска: 1957
Производитель диска: UK
Аудио кодек: APE
Тип рипа: image+.cue
Битрейт аудио: lossless
Продолжительность: 48:56
Лейбл: Blue Note
Источник: собственный рип, full scan 300dpi

Трэклист:
1 Be-Bop
2 I Didn't Know What Time It Was
3 Two Bass Hit
4 Tadd's Delight
5 Softly, As in a Morning Sunrise
6 I'll Remember April
7 I Didn't Know What Time It Was [alternate take]
8 Two Bass Hit [alternate take]
9 Tadd's Delight [alternate take]

Музыканты:
Sonny Clark, piano
Paul Chambers, bass
Philly Joe Jones, drums

Originally recorded on October 13, 1957 at the Van Gelder Studio, Hackensack, New Jersey
Remastered in 2001 by Rudy Van Gelder
 
Exact Audio Copy V0.99 prebeta 4 from 23. January 2008

Отчёт EAC об извлечении, выполненном 24. ноября 2009, 22:36

Sonny Clark Trio / Sonny Clark Trio

Дисковод: Optiarc DVD RW AD-7200A Adapter: 3 ID: 1

Режим чтения : ДостоверностьИспользование точного потока : ДаОтключение кэша аудио : ДаИспользование указателей C2 : Нет

Коррекция смещения при чтении : 48Способность читать области Lead-in и Lead-out : НетЗаполнение пропущенных сэмплов тишиной : ДаУдаление блоков с тишиной в начале и конце : НетПри вычислениях CRC использовались нулевые сэмплы : ДаИнтерфейс : Установленный внешний ASPI-интерфейс

Выходной формат : Внутренние WAV-операцииФормат сэмплов : 44.100 Гц; 16 бит; стерео

TOC извлечённого CD

Трек | Старт | Длительность | Начальный сектор | Конечный сектор --------------------------------------------------------------------- 1 | 0:00.00 | 9:54.03 | 0 | 44552 2 | 9:54.03 | 4:22.49 | 44553 | 64251 3 | 14:16.52 | 3:45.14 | 64252 | 81140 4 | 18:01.66 | 6:02.11 | 81141 | 108301 5 | 24:04.02 | 6:33.40 | 108302 | 137816 6 | 30:37.42 | 4:55.13 | 137817 | 159954 7 | 35:32.55 | 4:20.60 | 159955 | 179514 8 | 39:53.40 | 4:01.33 | 179515 | 197622 9 | 43:54.73 | 5:01.50 | 197623 | 220247

Характеристики диапазона извлечения и сообщения об ошибках

Выбранный диапазон

Имя файла E:\Up-Down\Sonny Clark Trio - Sonny Clark Trio\Sonny Clark Trio - Sonny Clark Trio.wav

Пиковый уровень 97.9 % Качество диапазона 100.0 % CRC копии 9A7103C4 Копирование... OK

Ошибок не произошло

AccurateRip: сводка

Трек 1 точное извлечение (доверие 10) [1E52D267]Трек 2 точное извлечение (доверие 10) [60E12C17]Трек 3 точное извлечение (доверие 10) [C8EA34C4]Трек 4 точное извлечение (доверие 10) [AF84FF42]Трек 5 точное извлечение (доверие 10) [15AF2C7F]Трек 6 точное извлечение (доверие 10) [2AF37B1C]Трек 7 точное извлечение (доверие 9) [136890F6]Трек 8 точное извлечение (доверие 9) [B4CA3191]Трек 9 точное извлечение (доверие 8) [EBB6A1F8]

Все треки извлечены точно

Конец отчёта
 
AUDIOCHECKER v1.2 - by Dester - opdester@freemail.hu~~~~~~~~~~~~~~~~~

1 -===- E:\Up-Down\Sonny Clark Trio - Sonny Clark Trio\Sonny Clark Trio - Sonny Clark Trio.ape Extracted successfully Conclusion: This track looks like CDDA with probability 100%


Трекер:  [ 28-Янв-2012 13:54 ]

  

Скачать .torrent

Размер .torrent файла 14 KB


Размер: 337 MB
Хэш (hash) релиза: 3375bf07052e7dec694f9af3d8099422543cacd5

Еще никто не оставлял запись к записи скачать торрент Sonny Clark Trio - Sonny Clark Trio {RVG Edition} - 1957, APE . Будь первым!

!Обратная связь