Скачать через торрент музыку Sonny Clark - Leapin and Lopin бесплатно без регистрации torrent

Если у вас наблюдаются проблемы со скриншотами, переходом по ссылками, скачиванием торрентов - проблемы в блокировщике рекламы AdBlock. #хорошегоДня!


Статистика раздачи
Размер:  383 MB   |    Зарегистрирован:  5 лет 8 месяцев   |    .torrent скачан:  30 раз   |   
Раздают:  1  
   
Загрузка...
 
Автор Сообщение

Umakiro

avatar Umakiro


Sonny Clark - Leapin' and Lopin'
Жанр: Hard Bop
Год выпуска диска: 2008
Производитель диска: Blue Note: RVG Edition (50999 2 15366 2 5)
Аудио кодек: FLAC
Тип рипа: tracks+.cue
Битрейт аудио: lossless
Продолжительность: 0:55:38
Трэклист:
01. Somethin' Special (6:24)
02. Deep in a Dream (6:48)
03. Melody for C (7:51)
04. Eric Walks (5:42)
05. Voodoo (7:40)
06. Midnight Mambo (7:16)
07. Zellmar's Delight (5:44)
08. Melody for C [alt. take] (8:14)

Tommy Turrentine - trumpet
Ike Quebec - tenor sax (#2)
Charlie Rouse - tenor sax
Sonny Clark - piano
Butch Warren - bass
Billy Higgins - drums

Recorded on November 13, 1961 at the Van Gelder Recording Studio, Englewood Cliffs, New Jaersey
Remastered in 2008 by Rudy Van Gelder

Автор рипа Mazeppa
 
Exact Audio Copy V0.99 prebeta 5 from 4. May 2009

EAC extraction logfile from 24. September 2009, 17:29

Sonny Clark / Leapin' and Lopin'

Used drive : TSSTcorpCDDVDW SH-S223Q Adapter: 2 ID: 1

Read mode : SecureUtilize accurate stream : YesDefeat audio cache : YesMake use of C2 pointers : No

Read offset correction : 6Overread into Lead-In and Lead-Out : NoFill up missing offset samples with silence : YesDelete leading and trailing silent blocks : NoNull samples used in CRC calculations : YesUsed interface : Installed external ASPI interfaceGap handling : Appended to previous track

Used output format : User Defined EncoderSelected bitrate : 320 kBit/sQuality : HighAdd ID3 tag : NoCommand line compressor : C:\Program Files (x86)\Exact Audio Copy\Flac\flac.exeAdditional command line options : -V -8 -T "artist=%a" -T "title=%t" -T "album=%g" -T "date=%y" -T "tracknumber=%n" -T "genre=%m" %s

TOC of the extracted CD

Track | Start | Length | Start sector | End sector --------------------------------------------------------- 1 | 0:00.00 | 6:23.63 | 0 | 28787 2 | 6:23.63 | 6:47.50 | 28788 | 59362 3 | 13:11.38 | 7:50.71 | 59363 | 94683 4 | 21:02.34 | 5:41.38 | 94684 | 120296 5 | 26:43.72 | 7:39.40 | 120297 | 154761 6 | 34:23.37 | 7:16.23 | 154762 | 187484 7 | 41:39.60 | 5:43.42 | 187485 | 213251 8 | 47:23.27 | 8:14.22 | 213252 | 250323

Track 1

Filename C:\Audio\Sonny Clark - Leapin' and Lopin' (1961) [FLAC] {2009 Blue Note RVG Edition}\01 - Somethin' Special.wav

Pre-gap length 0:00:02.00

Peak level 97.9 % Track quality 100.0 % Test CRC 3C3436AF Copy CRC 3C3436AF Accurately ripped (confidence 8) [41E6FFA8] Copy OK

Track 2

Filename C:\Audio\Sonny Clark - Leapin' and Lopin' (1961) [FLAC] {2009 Blue Note RVG Edition}\02 - Deep in a Dream.wav

Pre-gap length 0:00:03.12

Peak level 97.9 % Track quality 100.0 % Test CRC D9FCB04C Copy CRC D9FCB04C Accurately ripped (confidence 8) [253EF1C6] Copy OK

Track 3

Filename C:\Audio\Sonny Clark - Leapin' and Lopin' (1961) [FLAC] {2009 Blue Note RVG Edition}\03 - Melody for C.wav

Pre-gap length 0:00:03.22

Peak level 97.9 % Track quality 100.0 % Test CRC 820B4648 Copy CRC 820B4648 Accurately ripped (confidence 8) [7664A45F] Copy OK

Track 4

Filename C:\Audio\Sonny Clark - Leapin' and Lopin' (1961) [FLAC] {2009 Blue Note RVG Edition}\04 - Eric Walks.wav

Pre-gap length 0:00:03.41

Peak level 97.9 % Track quality 100.0 % Test CRC F0138AC8 Copy CRC F0138AC8 Accurately ripped (confidence 8) [DB176233] Copy OK

Track 5

Filename C:\Audio\Sonny Clark - Leapin' and Lopin' (1961) [FLAC] {2009 Blue Note RVG Edition}\05 - Voodoo.wav

Pre-gap length 0:00:01.96

Peak level 97.9 % Track quality 100.0 % Test CRC F9382D80 Copy CRC F9382D80 Accurately ripped (confidence 8) [8A188961] Copy OK

Track 6

Filename C:\Audio\Sonny Clark - Leapin' and Lopin' (1961) [FLAC] {2009 Blue Note RVG Edition}\06 - Midnight Mambo.wav

Pre-gap length 0:00:00.76

Peak level 97.9 % Track quality 99.9 % Test CRC 6D0433BC Copy CRC 6D0433BC Accurately ripped (confidence 8) [A72B93F4] Copy OK

Track 7

Filename C:\Audio\Sonny Clark - Leapin' and Lopin' (1961) [FLAC] {2009 Blue Note RVG Edition}\07 - Zellmar's Delight.wav

Pre-gap length 0:00:00.77

Peak level 97.9 % Track quality 100.0 % Test CRC CF9FC44C Copy CRC CF9FC44C Accurately ripped (confidence 8) [1855583E] Copy OK

Track 8

Filename C:\Audio\Sonny Clark - Leapin' and Lopin' (1961) [FLAC] {2009 Blue Note RVG Edition}\08 - Melody for C [alt. take].wav

Pre-gap length 0:00:03.54

Peak level 97.9 % Track quality 100.0 % Test CRC 4EA654FA Copy CRC 4EA654FA Accurately ripped (confidence 8) [DC3C319B] Copy OK

All tracks accurately ripped

No errors occurred

End of status report
 
REM GENRE "Hard Bop"REM DATE 1962REM DISCID 660D0908REM COMMENT "ExactAudioCopy v0.99pb5"PERFORMER "Sonny Clark"TITLE "Leapin' and Lopin'"FILE "01 - Somethin' Special.wav" WAVE TRACK 01 AUDIO TITLE "Somethin' Special" PERFORMER "Sonny Clark" INDEX 01 00:00:00 TRACK 02 AUDIO TITLE "Deep in a Dream" PERFORMER "Sonny Clark" INDEX 00 06:20:54FILE "02 - Deep in a Dream.wav" WAVE INDEX 01 00:00:00 TRACK 03 AUDIO TITLE "Melody for C" PERFORMER "Sonny Clark" INDEX 00 06:44:33FILE "03 - Melody for C.wav" WAVE INDEX 01 00:00:00 TRACK 04 AUDIO TITLE "Eric Walks" PERFORMER "Sonny Clark" INDEX 00 07:47:40FILE "04 - Eric Walks.wav" WAVE INDEX 01 00:00:00 TRACK 05 AUDIO TITLE "Voodoo" PERFORMER "Sonny Clark" INDEX 00 05:39:41FILE "05 - Voodoo.wav" WAVE INDEX 01 00:00:00 TRACK 06 AUDIO TITLE "Midnight Mambo" PERFORMER "Sonny Clark" INDEX 00 07:38:58FILE "06 - Midnight Mambo.wav" WAVE INDEX 01 00:00:00 TRACK 07 AUDIO TITLE "Zellmar's Delight" PERFORMER "Sonny Clark" INDEX 00 07:15:40FILE "07 - Zellmar's Delight.wav" WAVE INDEX 01 00:00:00 TRACK 08 AUDIO TITLE "Melody for C [alt. take]" PERFORMER "Sonny Clark" INDEX 00 05:40:01FILE "08 - Melody for C [alt. take].wav" WAVE INDEX 01 00:00:00


Трекер:  [ 28-Янв-2012 13:53 ]

  

Скачать .torrent

Размер .torrent файла 16 KB


Размер: 383 MB
Хэш (hash) релиза: a70c494e0f086def9ef5fc0f5b5a21ab7ff69ae8

Еще никто не оставлял запись к записи скачать торрент Sonny Clark - Leapin and Lopin . Будь первым!

!Обратная связь