Скачать через торрент музыку Paul Chambers - Paul Chambers Quintet бесплатно без регистрации torrent

Если у вас наблюдаются проблемы со скриншотами, переходом по ссылками, скачиванием торрентов - проблемы в блокировщике рекламы AdBlock. #хорошегоДня!


Статистика раздачи
Размер:  302 MB   |    Зарегистрирован:  5 лет 8 месяцев   |    .torrent скачан:  29 раз   |   
Раздают:  1  
   
Загрузка...
 
Автор Сообщение

Umakiro

avatar Umakiro


Paul Chambers - Paul Chambers Quintet [RVG Edition]
Жанр: Hard Bop
Год выпуска диска: 1957
Производитель диска: Blue Note Japan RVG Edition (TOCJ-7152) [2009]
Аудио кодек: FLAC
Тип рипа: tracks+.cue
Битрейт аудио: lossless
Продолжительность: 0:41:49
Трэклист:
01. Minor Run-Down (7:40)
02. The Hand Of Love (6:26)
03. Softly As In A Morning Sunrise (3:10)
04. Four Strings (5:30)
05. What's New (5:40)
06. Beauteous (8:09)
07. Four Strings (Alternate Take) (5:13)

Donald Byrd - trumpet
Cliff Jordan - tenor sax
Tommy Flanagan - piano
Pau Chambers - bass
Elvin Jones - drums

За рип спасибо Mazeppa
.
 
Exact Audio Copy V0.99 prebeta 5 from 4. May 2009

EAC extraction logfile from 14. July 2009, 16:52

Paul Chambers Quintet / Paul Chambers Quintet

Used drive : TSSTcorpCDDVDW SH-S223Q Adapter: 2 ID: 1

Read mode : SecureUtilize accurate stream : YesDefeat audio cache : YesMake use of C2 pointers : No

Read offset correction : 6Overread into Lead-In and Lead-Out : NoFill up missing offset samples with silence : YesDelete leading and trailing silent blocks : NoNull samples used in CRC calculations : YesUsed interface : Installed external ASPI interfaceGap handling : Appended to previous track

Used output format : User Defined EncoderSelected bitrate : 320 kBit/sQuality : HighAdd ID3 tag : NoCommand line compressor : C:\Program Files (x86)\Exact Audio Copy\Flac\flac.exeAdditional command line options : -V -8 -T "artist=%a" -T "title=%t" -T "album=%g" -T "date=%y" -T "tracknumber=%n" -T "genre=%m" %s

TOC of the extracted CD

Track | Start | Length | Start sector | End sector --------------------------------------------------------- 1 | 0:00.00 | 7:40.26 | 0 | 34525 2 | 7:40.26 | 6:26.37 | 34526 | 63512 3 | 14:06.63 | 3:10.09 | 63513 | 77771 4 | 17:16.72 | 5:30.18 | 77772 | 102539 5 | 22:47.15 | 5:40.06 | 102540 | 128045 6 | 28:27.21 | 8:08.58 | 128046 | 164703 7 | 36:36.04 | 5:12.55 | 164704 | 188158

Track 1

Filename C:\Audio\Paul Chambers - Paul Chambers Quintet (1957) [FLAC] {2008 Japan Blue Note RVG}\01 - Minor Run-Down.wav

Pre-gap length 0:00:02.00

Peak level 97.9 % Track quality 100.0 % Test CRC 3E6A871B Copy CRC 3E6A871B Accurately ripped (confidence 3) [89451655] Copy OK

Track 2

Filename C:\Audio\Paul Chambers - Paul Chambers Quintet (1957) [FLAC] {2008 Japan Blue Note RVG}\02 - The Hand Of Love.wav

Pre-gap length 0:00:03.01

Peak level 97.9 % Track quality 99.9 % Test CRC 6F30D8A1 Copy CRC 6F30D8A1 Accurately ripped (confidence 3) [9DACFC9B] Copy OK

Track 3

Filename C:\Audio\Paul Chambers - Paul Chambers Quintet (1957) [FLAC] {2008 Japan Blue Note RVG}\03 - Softly As In A Morning Sunrise.wav

Pre-gap length 0:00:04.25

Peak level 97.9 % Track quality 100.0 % Test CRC DAFDFA06 Copy CRC DAFDFA06 Accurately ripped (confidence 3) [BE4C6933] Copy OK

Track 4

Filename C:\Audio\Paul Chambers - Paul Chambers Quintet (1957) [FLAC] {2008 Japan Blue Note RVG}\04 - Four Strings.wav

Pre-gap length 0:00:03.49

Peak level 97.9 % Track quality 100.0 % Test CRC A3A083F0 Copy CRC A3A083F0 Accurately ripped (confidence 3) [031545AF] Copy OK

Track 5

Filename C:\Audio\Paul Chambers - Paul Chambers Quintet (1957) [FLAC] {2008 Japan Blue Note RVG}\05 - What's New.wav

Pre-gap length 0:00:04.10

Peak level 97.9 % Track quality 100.0 % Test CRC 6BC79043 Copy CRC 6BC79043 Accurately ripped (confidence 3) [2861C24D] Copy OK

Track 6

Filename C:\Audio\Paul Chambers - Paul Chambers Quintet (1957) [FLAC] {2008 Japan Blue Note RVG}\06 - Beauteous.wav

Pre-gap length 0:00:01.86

Peak level 97.9 % Track quality 99.9 % Test CRC C18AA04D Copy CRC C18AA04D Accurately ripped (confidence 3) [8167A981] Copy OK

Track 7

Filename C:\Audio\Paul Chambers - Paul Chambers Quintet (1957) [FLAC] {2008 Japan Blue Note RVG}\07 - Four Strings (Alt Tk).wav

Pre-gap length 0:00:03.52

Peak level 97.9 % Track quality 100.0 % Test CRC E9F0E934 Copy CRC E9F0E934 Accurately ripped (confidence 3) [C7D88222] Copy OK

All tracks accurately ripped

No errors occurred

End of status report
 
REM GENRE JazzREM DATE 1957REM DISCID 6609CC07REM COMMENT "ExactAudioCopy v0.99pb5"PERFORMER "Paul Chambers Quintet"TITLE "Paul Chambers Quintet"FILE "01 - Minor Run-Down.wav" WAVE TRACK 01 AUDIO TITLE "Minor Run-Down" PERFORMER "Paul Chambers Quintet" INDEX 01 00:00:00 TRACK 02 AUDIO TITLE "The Hand Of Love" PERFORMER "Paul Chambers Quintet" INDEX 00 07:37:25FILE "02 - The Hand Of Love.wav" WAVE INDEX 01 00:00:00 TRACK 03 AUDIO TITLE "Softly As In A Morning Sunrise" PERFORMER "Paul Chambers Quintet" INDEX 00 06:22:18FILE "03 - Softly As In A Morning Sunrise.wav" WAVE INDEX 01 00:00:00 TRACK 04 AUDIO TITLE "Four Strings" PERFORMER "Paul Chambers Quintet" INDEX 00 03:06:47FILE "04 - Four Strings.wav" WAVE INDEX 01 00:00:00 TRACK 05 AUDIO TITLE "What's New" PERFORMER "Paul Chambers Quintet" INDEX 00 05:26:10FILE "05 - What's New.wav" WAVE INDEX 01 00:00:00 TRACK 06 AUDIO TITLE "Beauteous" PERFORMER "Paul Chambers Quintet" INDEX 00 05:38:16FILE "06 - Beauteous.wav" WAVE INDEX 01 00:00:00 TRACK 07 AUDIO TITLE "Four Strings (Alt Tk)" PERFORMER "Paul Chambers Quintet" INDEX 00 08:05:19FILE "07 - Four Strings (Alt Tk).wav" WAVE INDEX 01 00:00:00


Трекер:  [ 28-Янв-2012 13:50 ]

  

Скачать .torrent

Размер .torrent файла 13 KB


Размер: 302 MB
Хэш (hash) релиза: 85c706e93bd62c19d72d7085e1aba7a8fc8d3b33

Еще никто не оставлял запись к записи скачать торрент Paul Chambers - Paul Chambers Quintet . Будь первым!

!Обратная связь