Скачать через торрент музыку Miles Davis - Great Sessions бесплатно без регистрации torrent

Если у вас наблюдаются проблемы со скриншотами, переходом по ссылками, скачиванием торрентов - проблемы в блокировщике рекламы AdBlock. #хорошегоДня!


Статистика раздачи
Размер:  491 MB   |    Зарегистрирован:  5 лет 8 месяцев   |    .torrent скачан:  44 раза   |   
Раздают:  1  
   
Загрузка...
 
Автор Сообщение

Umakiro

avatar Umakiro


Miles Davis - Great Sessions (Birth of the Cool + Blue Note Records: RVG Edition)

Жанр: Bop, Cool, Jazz
Год выпуска: 2006
Производитель: USA
Аудио кодек: FLAC
Тип рипа: tracks+.cue
Битрейт аудио: lossless
Продолжительность: 3 CD

Доп. информация:
Remastered in 2001 by Rudy Van Gelder
Release: 04.04.2006
Label: Blue Note Records
UPC: 0946 3 52767 2 5
Трэклист:
01. Move (2:32)
02. Jeru (3:10)
03. Moon Dreams (3:18)
04. Venus De Milo (3:10)
05. Budo (2:31)
06. Deception (2:46)
07. Godchild (3:08)
08. Boplicity (2:58)
09. Rocker (3:04)
10. Israel (2:15)
11. Rouge (3:13)
12. Darn That Dream (3:24)
Время звучания: 36:15.95
Exact Audio Copy V0.99 prebeta 4 from 23. January 2008

EAC extraction logfile from 8. January 2009, 16:07

Miles Davis / Birth of The Cool

Used drive : PIONEER DVD-RW DVR-111D Adapter: 1 ID: 0

Read mode : Secure
Utilize accurate stream : Yes
Defeat audio cache : Yes
Make use of C2 pointers : No

Read offset correction : 48
Overread into Lead-In and Lead-Out : No
Fill up missing offset samples with silence : Yes
Delete leading and trailing silent blocks : No
Null samples used in CRC calculations : Yes
Used interface : Native Win32 interface for Win NT & 2000
Gap handling : Left out

Used output format : User Defined Encoder
Selected bitrate : 320 kBit/s
Quality : High
Add ID3 tag : No
Command line compressor : C:\Program Files\Exact Audio Copy\Flac\flac.exe
Additional command line options : -8 -V -T "ARTIST=%a" -T "TITLE=%t" -T "ALBUM=%g" -T "DATE=%y" -T "TRACKNUMBER=%n" -T "GENRE=%m" -T "COMMENT=EAC FLAC -8" %s

TOC of the extracted CD

Track | Start | Length | Start sector | End sector
---------------------------------------------------------
1 | 0:00.00 | 2:35.20 | 0 | 11644
2 | 2:35.20 | 3:15.00 | 11645 | 26269
3 | 5:50.20 | 3:21.68 | 26270 | 41412
4 | 9:12.13 | 3:14.31 | 41413 | 55993
5 | 12:26.44 | 2:34.30 | 55994 | 67573
6 | 15:00.74 | 2:50.23 | 67574 | 80346
7 | 17:51.22 | 3:12.61 | 80347 | 94807
8 | 21:04.08 | 3:02.42 | 94808 | 108499
9 | 24:06.50 | 3:07.61 | 108500 | 122585
10 | 27:14.36 | 2:19.38 | 122586 | 133048
11 | 29:33.74 | 3:17.24 | 133049 | 147847
12 | 32:51.23 | 3:24.72 | 147848 | 163219

Track 1

Filename D:\Music\.lossless\Miles Davis\Great Sessions\CD1 - Birth Of The Cool\01 - Move.wav

Pre-gap length 0:00:02.00

Peak level 97.9 %
Track quality 100.0 %
Test CRC 70A171BA
Copy CRC 70A171BA
Track not fully ripped for AccurateRip lookup
Copy OK

Track 2

Filename D:\Music\.lossless\Miles Davis\Great Sessions\CD1 - Birth Of The Cool\02 - Jeru.wav

Pre-gap length 0:00:02.65

Peak level 97.9 %
Track quality 100.0 %
Test CRC 9605091C
Copy CRC 9605091C
Track not fully ripped for AccurateRip lookup
Copy OK

Track 3

Filename D:\Music\.lossless\Miles Davis\Great Sessions\CD1 - Birth Of The Cool\03 - Moon Dreams.wav

Pre-gap length 0:00:04.12

Peak level 97.9 %
Track quality 100.0 %
Test CRC 014C4A21
Copy CRC 014C4A21
Track not fully ripped for AccurateRip lookup
Copy OK

Track 4

Filename D:\Music\.lossless\Miles Davis\Great Sessions\CD1 - Birth Of The Cool\04 - Venus De Milo.wav

Pre-gap length 0:00:03.64

Peak level 97.9 %
Track quality 100.0 %
Test CRC CB22F410
Copy CRC CB22F410
Track not fully ripped for AccurateRip lookup
Copy OK

Track 5

Filename D:\Music\.lossless\Miles Davis\Great Sessions\CD1 - Birth Of The Cool\05 - Budo.wav

Pre-gap length 0:00:03.70

Peak level 97.9 %
Track quality 99.9 %
Test CRC 718ED7B5
Copy CRC 718ED7B5
Track not fully ripped for AccurateRip lookup
Copy OK

Track 6

Filename D:\Music\.lossless\Miles Davis\Great Sessions\CD1 - Birth Of The Cool\06 - Deception.wav

Pre-gap length 0:00:02.62

Peak level 97.9 %
Track quality 100.0 %
Test CRC 7CF18AF4
Copy CRC 7CF18AF4
Track not fully ripped for AccurateRip lookup
Copy OK

Track 7

Filename D:\Music\.lossless\Miles Davis\Great Sessions\CD1 - Birth Of The Cool\07 - Godchild.wav

Pre-gap length 0:00:03.84

Peak level 97.9 %
Track quality 99.9 %
Test CRC 4649FFE5
Copy CRC 4649FFE5
Track not fully ripped for AccurateRip lookup
Copy OK

Track 8

Filename D:\Music\.lossless\Miles Davis\Great Sessions\CD1 - Birth Of The Cool\08 - Boplicity.wav

Pre-gap length 0:00:03.88

Peak level 86.8 %
Track quality 100.0 %
Test CRC 04FB8966
Copy CRC 04FB8966
Track not fully ripped for AccurateRip lookup
Copy OK

Track 9

Filename D:\Music\.lossless\Miles Davis\Great Sessions\CD1 - Birth Of The Cool\09 - Rocker.wav

Pre-gap length 0:00:03.88

Peak level 97.9 %
Track quality 100.0 %
Test CRC 91D07405
Copy CRC 91D07405
Track not fully ripped for AccurateRip lookup
Copy OK

Track 10

Filename D:\Music\.lossless\Miles Davis\Great Sessions\CD1 - Birth Of The Cool\10 - Israel.wav

Pre-gap length 0:00:03.76

Peak level 97.9 %
Track quality 99.9 %
Test CRC B1A97BE1
Copy CRC B1A97BE1
Track not fully ripped for AccurateRip lookup
Copy OK

Track 11

Filename D:\Music\.lossless\Miles Davis\Great Sessions\CD1 - Birth Of The Cool\11 - Rouge.wav

Pre-gap length 0:00:04.34

Peak level 97.9 %
Track quality 100.0 %
Test CRC B6CCFD18
Copy CRC B6CCFD18
Track not fully ripped for AccurateRip lookup
Copy OK

Track 12

Filename D:\Music\.lossless\Miles Davis\Great Sessions\CD1 - Birth Of The Cool\12 - Darn That Dream.wav

Pre-gap length 0:00:04.17

Peak level 91.5 %
Track quality 100.0 %
Test CRC 2FA4EC68
Copy CRC 2FA4EC68
Accurately ripped (confidence 45) [90E8C9D3]
Copy OK

1 track(s) accurately ripped
11 track(s) not fully ripped for AccurateRip lookup

Some tracks could not be verified as accurate

No errors occurred

End of status report
Трэклист:
01. Dear Old Stockholm (4:10)
02. Chance It (3:00)
03. Donna (3:10)
04. Woody 'n' You (3:22)
05. Yesterdays (3:42)
06. How Deep Is The Ocean? (4:36)
07. Chance It (Alternate Take) (2:51)
08. Donna (Alternate Take) (3:08)
09. Woody 'n' You (Alternate Take) (3:19)
10. Take Off (3:37)
11. Lazy Susan (4:00)
12. The Leap (4:28)
13. Well You Needn't (5:20)
14. Weirdo (4:42)
15. It Never Entered My Mind (4:02)
Время звучания: 58:16.52
Exact Audio Copy V0.99 prebeta 4 from 23. January 2008

EAC extraction logfile from 8. January 2009, 17:46

Miles Davis / VolumeOne

Used drive : PIONEER DVD-RW DVR-111D Adapter: 1 ID: 0

Read mode : Secure
Utilize accurate stream : Yes
Defeat audio cache : Yes
Make use of C2 pointers : No

Read offset correction : 48
Overread into Lead-In and Lead-Out : No
Fill up missing offset samples with silence : Yes
Delete leading and trailing silent blocks : No
Null samples used in CRC calculations : Yes
Used interface : Native Win32 interface for Win NT & 2000
Gap handling : Left out

Used output format : User Defined Encoder
Selected bitrate : 320 kBit/s
Quality : High
Add ID3 tag : No
Command line compressor : C:\Program Files\Exact Audio Copy\Flac\flac.exe
Additional command line options : -8 -V -T "ARTIST=%a" -T "TITLE=%t" -T "ALBUM=%g" -T "DATE=%y" -T "TRACKNUMBER=%n" -T "GENRE=%m" -T "COMMENT=EAC FLAC -8" %s

TOC of the extracted CD

Track | Start | Length | Start sector | End sector
---------------------------------------------------------
1 | 0:00.00 | 4:12.72 | 0 | 18971
2 | 4:12.72 | 3:03.12 | 18972 | 32708
3 | 7:16.09 | 3:13.42 | 32709 | 47225
4 | 10:29.51 | 3:25.69 | 47226 | 62669
5 | 13:55.45 | 3:45.02 | 62670 | 79546
6 | 17:40.47 | 4:38.56 | 79547 | 100452
7 | 22:19.28 | 2:55.44 | 100453 | 113621
8 | 25:14.72 | 3:11.50 | 113622 | 127996
9 | 28:26.47 | 3:23.13 | 127997 | 143234
10 | 31:49.60 | 3:40.58 | 143235 | 159792
11 | 35:30.43 | 4:02.35 | 159793 | 177977
12 | 39:33.03 | 4:31.54 | 177978 | 198356
13 | 44:04.57 | 5:23.51 | 198357 | 222632
14 | 49:28.33 | 4:45.47 | 222633 | 244054
15 | 54:14.05 | 4:02.47 | 244055 | 262251

Track 1

Filename D:\Music\.lossless\Miles Davis\Great Sessions\CD2 - Vol.1\01 - Dear Old Stockholm.wav

Pre-gap length 0:00:02.00

Peak level 97.9 %
Track quality 100.0 %
Test CRC F3C8D8CC
Copy CRC F3C8D8CC
Track not fully ripped for AccurateRip lookup
Copy OK

Track 2

Filename D:\Music\.lossless\Miles Davis\Great Sessions\CD2 - Vol.1\02 - Chance It.wav

Pre-gap length 0:00:02.40

Peak level 97.9 %
Track quality 100.0 %
Test CRC 7F4D420E
Copy CRC 7F4D420E
Track not fully ripped for AccurateRip lookup
Copy OK

Track 3

Filename D:\Music\.lossless\Miles Davis\Great Sessions\CD2 - Vol.1\03 - Donna.wav

Pre-gap length 0:00:02.77

Peak level 97.9 %
Track quality 100.0 %
Test CRC 347B8148
Copy CRC 347B8148
Track not fully ripped for AccurateRip lookup
Copy OK

Track 4

Filename D:\Music\.lossless\Miles Davis\Great Sessions\CD2 - Vol.1\04 - Woody 'n' You.wav

Pre-gap length 0:00:03.14

Peak level 97.9 %
Track quality 100.0 %
Test CRC F4AD5741
Copy CRC F4AD5741
Track not fully ripped for AccurateRip lookup
Copy OK

Track 5

Filename D:\Music\.lossless\Miles Davis\Great Sessions\CD2 - Vol.1\05 - Yesterdays.wav

Pre-gap length 0:00:03.80

Peak level 97.9 %
Track quality 100.0 %
Test CRC D42D6EFC
Copy CRC D42D6EFC
Track not fully ripped for AccurateRip lookup
Copy OK

Track 6

Filename D:\Music\.lossless\Miles Davis\Great Sessions\CD2 - Vol.1\06 - How Deep Is The Ocean .wav

Pre-gap length 0:00:02.57

Peak level 97.9 %
Track quality 100.0 %
Test CRC 7788F03A
Copy CRC 7788F03A
Track not fully ripped for AccurateRip lookup
Copy OK

Track 7

Filename D:\Music\.lossless\Miles Davis\Great Sessions\CD2 - Vol.1\07 - Chance It (Alternate Take).wav

Pre-gap length 0:00:02.65

Peak level 97.9 %
Track quality 100.0 %
Test CRC 9467A998
Copy CRC 9467A998
Track not fully ripped for AccurateRip lookup
Copy OK

Track 8

Filename D:\Music\.lossless\Miles Davis\Great Sessions\CD2 - Vol.1\08 - Donna (Alternate Take).wav

Pre-gap length 0:00:03.80

Peak level 97.9 %
Track quality 100.0 %
Test CRC 6AD3CC9F
Copy CRC 6AD3CC9F
Track not fully ripped for AccurateRip lookup
Copy OK

Track 9

Filename D:\Music\.lossless\Miles Davis\Great Sessions\CD2 - Vol.1\09 - Woody 'n' You (Alternate Take).wav

Pre-gap length 0:00:03.16

Peak level 97.9 %
Track quality 100.0 %
Test CRC 5663AAD2
Copy CRC 5663AAD2
Track not fully ripped for AccurateRip lookup
Copy OK

Track 10

Filename D:\Music\.lossless\Miles Davis\Great Sessions\CD2 - Vol.1\10 - Take Off.wav

Pre-gap length 0:00:03.24

Peak level 97.9 %
Track quality 100.0 %
Test CRC 03AA206E
Copy CRC 03AA206E
Track not fully ripped for AccurateRip lookup
Copy OK

Track 11

Filename D:\Music\.lossless\Miles Davis\Great Sessions\CD2 - Vol.1\11 - Lazy Susan.wav

Pre-gap length 0:00:03.14

Peak level 97.9 %
Track quality 100.0 %
Test CRC 994A3E06
Copy CRC 994A3E06
Track not fully ripped for AccurateRip lookup
Copy OK

Track 12

Filename D:\Music\.lossless\Miles Davis\Great Sessions\CD2 - Vol.1\12 - The Leap.wav

Pre-gap length 0:00:01.81

Peak level 97.9 %
Track quality 99.9 %
Test CRC 47503CAC
Copy CRC 47503CAC
Track not fully ripped for AccurateRip lookup
Copy OK

Track 13

Filename D:\Music\.lossless\Miles Davis\Great Sessions\CD2 - Vol.1\13 - Well You Needn't.wav

Pre-gap length 0:00:03.10

Peak level 97.9 %
Track quality 100.0 %
Test CRC 774E8979
Copy CRC 774E8979
Track not fully ripped for AccurateRip lookup
Copy OK

Track 14

Filename D:\Music\.lossless\Miles Davis\Great Sessions\CD2 - Vol.1\14 - Weirdo.wav

Pre-gap length 0:00:03.10

Peak level 97.9 %
Track quality 100.0 %
Test CRC B0016ABA
Copy CRC B0016ABA
Track not fully ripped for AccurateRip lookup
Copy OK

Track 15

Filename D:\Music\.lossless\Miles Davis\Great Sessions\CD2 - Vol.1\15 - It Never Entered My Mind.wav

Pre-gap length 0:00:03.14

Peak level 97.6 %
Track quality 100.0 %
Test CRC ED5F3B61
Copy CRC ED5F3B61
Accurately ripped (confidence 14) [D1655529]
Copy OK

1 track(s) accurately ripped
14 track(s) not fully ripped for AccurateRip lookup

Some tracks could not be verified as accurate

No errors occurred

End of status report
Трэклист:
01. Kelo (3:16)
02. Enigma (3:20)
03. Ray's Idea (6:42)
04. Tempus Fugit (3:47)
05. C.T.A. (3:30)
06. I Waited For You (3:26)
07. Kelo (Alternate Take) (3:23)
08. Enigma (Alternate Take) (3:23)
09. Ray's Idea (Alternate Take) (3:48)
10. Tempus Fugit (Alternate Take) (3:55)
11. C.T.A. (Alternate Take) (3:15)
Время звучания: 39:11.21
Exact Audio Copy V0.99 prebeta 4 from 23. January 2008

EAC extraction logfile from 8. January 2009, 19:36

Miles Davis / Volume Two

Used drive : PIONEER DVD-RW DVR-111D Adapter: 1 ID: 0

Read mode : Secure
Utilize accurate stream : Yes
Defeat audio cache : Yes
Make use of C2 pointers : No

Read offset correction : 48
Overread into Lead-In and Lead-Out : No
Fill up missing offset samples with silence : Yes
Delete leading and trailing silent blocks : No
Null samples used in CRC calculations : Yes
Used interface : Native Win32 interface for Win NT & 2000
Gap handling : Left out

Used output format : User Defined Encoder
Selected bitrate : 320 kBit/s
Quality : High
Add ID3 tag : No
Command line compressor : C:\Program Files\Exact Audio Copy\Flac\flac.exe
Additional command line options : -8 -V -T "ARTIST=%a" -T "TITLE=%t" -T "ALBUM=%g" -T "DATE=%y" -T "TRACKNUMBER=%n" -T "GENRE=%m" -T "COMMENT=EAC FLAC -8" %s

TOC of the extracted CD

Track | Start | Length | Start sector | End sector
---------------------------------------------------------
1 | 0:00.00 | 3:18.10 | 0 | 14859
2 | 3:18.10 | 3:22.60 | 14860 | 30069
3 | 6:40.70 | 3:43.49 | 30070 | 46843
4 | 10:24.44 | 3:49.38 | 46844 | 64056
5 | 14:14.07 | 3:32.56 | 64057 | 80012
6 | 17:46.63 | 3:29.05 | 80013 | 95692
7 | 21:15.68 | 3:26.01 | 95693 | 111143
8 | 24:41.69 | 3:25.51 | 111144 | 126569
9 | 28:07.45 | 3:50.22 | 126570 | 143841
10 | 31:57.67 | 3:57.72 | 143842 | 161688
11 | 35:55.64 | 3:15.57 | 161689 | 176370

Track 1

Filename D:\Music\.lossless\Miles Davis\Great Sessions\CD3 - Vol.2\01 - Kelo.wav

Pre-gap length 0:00:02.00

Peak level 97.9 %
Track quality 100.0 %
Test CRC E9568F11
Copy CRC E9568F11
Track not fully ripped for AccurateRip lookup
Copy OK

Track 2

Filename D:\Music\.lossless\Miles Davis\Great Sessions\CD3 - Vol.2\02 - Enigma.wav

Pre-gap length 0:00:02.12

Peak level 97.9 %
Track quality 100.0 %
Test CRC FC10A11D
Copy CRC FC10A11D
Track not fully ripped for AccurateRip lookup
Copy OK

Track 3

Filename D:\Music\.lossless\Miles Davis\Great Sessions\CD3 - Vol.2\03 - Ray's Idea.wav

Pre-gap length 0:00:02.40

Peak level 97.9 %
Track quality 99.9 %
Test CRC 0304E209
Copy CRC 0304E209
Track not fully ripped for AccurateRip lookup
Copy OK

Track 4

Filename D:\Music\.lossless\Miles Davis\Great Sessions\CD3 - Vol.2\04 - Tempus Fugit.wav

Pre-gap length 0:00:02.17

Peak level 97.9 %
Track quality 100.0 %
Test CRC 27EE64B0
Copy CRC 27EE64B0
Track not fully ripped for AccurateRip lookup
Copy OK

Track 5

Filename D:\Music\.lossless\Miles Davis\Great Sessions\CD3 - Vol.2\05 - C.T.A.wav

Pre-gap length 0:00:02.17

Peak level 97.9 %
Track quality 100.0 %
Test CRC 817C12E9
Copy CRC 817C12E9
Track not fully ripped for AccurateRip lookup
Copy OK

Track 6

Filename D:\Music\.lossless\Miles Davis\Great Sessions\CD3 - Vol.2\06 - I Waited For You.wav

Pre-gap length 0:00:01.85

Peak level 97.9 %
Track quality 99.9 %
Test CRC 5DC5860D
Copy CRC 5DC5860D
Track not fully ripped for AccurateRip lookup
Copy OK

Track 7

Filename D:\Music\.lossless\Miles Davis\Great Sessions\CD3 - Vol.2\07 - Kelo (Alternate Take).wav

Pre-gap length 0:00:02.21

Peak level 97.9 %
Track quality 100.0 %
Test CRC 7BB0FA70
Copy CRC 7BB0FA70
Track not fully ripped for AccurateRip lookup
Copy OK

Track 8

Filename D:\Music\.lossless\Miles Davis\Great Sessions\CD3 - Vol.2\08 - Enigma (Alternate Take).wav

Pre-gap length 0:00:02.57

Peak level 97.9 %
Track quality 100.0 %
Test CRC 1B63DC4B
Copy CRC 1B63DC4B
Track not fully ripped for AccurateRip lookup
Copy OK

Track 9

Filename D:\Music\.lossless\Miles Davis\Great Sessions\CD3 - Vol.2\09 - Ray's Idea (Alternate Take).wav

Pre-gap length 0:00:02.08

Peak level 97.9 %
Track quality 99.9 %
Test CRC 306D8A36
Copy CRC 306D8A36
Track not fully ripped for AccurateRip lookup
Copy OK

Track 10

Filename D:\Music\.lossless\Miles Davis\Great Sessions\CD3 - Vol.2\10 - Tempus Fugit (Alternate Take).wav

Pre-gap length 0:00:02.17

Peak level 97.9 %
Track quality 100.0 %
Test CRC C67A2D7C
Copy CRC C67A2D7C
Track not fully ripped for AccurateRip lookup
Copy OK

Track 11

Filename D:\Music\.lossless\Miles Davis\Great Sessions\CD3 - Vol.2\11 - C.T.A (Alternate Take).wav

Pre-gap length 0:00:02.82

Peak level 97.9 %
Track quality 100.0 %
Test CRC 91E7606E
Copy CRC 91E7606E
Accurately ripped (confidence 14) [07269C6E]
Copy OK

1 track(s) accurately ripped
0 track(s) not fully ripped for AccurateRip lookup

Some tracks could not be verified as accurate

No errors occurred

End of status report


Трекер:  [ 28-Янв-2012 13:49 ]

  

Скачать .torrent

Размер .torrent файла 6 KB


Размер: 491 MB
Хэш (hash) релиза: 3a34f2de7d56dbba71d499336b92565be99ea814

Еще никто не оставлял запись к записи скачать торрент Miles Davis - Great Sessions . Будь первым!

!Обратная связь