Скачать через торрент музыку McCoy Tyner - The Real McCoy бесплатно без регистрации torrent

Если у вас наблюдаются проблемы со скриншотами, переходом по ссылками, скачиванием торрентов - проблемы в блокировщике рекламы AdBlock. #хорошегоДня!


Статистика раздачи
Размер:  244 MB   |    Зарегистрирован:  5 лет 8 месяцев   |    .torrent скачан:  27 раз   |   
Раздают:  1  
   
Загрузка...
 
Автор Сообщение

Umakiro

avatar Umakiro


McCoy Tyner - The Real McCoy (1967) [RVG Edition]

Жанр: Post-Bop
Год выпуска диска: 1999
Производитель диска: EU
Аудио кодек: FLAC
Тип рипа: tracks+.cue
Битрейт аудио: lossless
Продолжительность: 37:07
Трэклист:
01 - Passion Dance
02 - Contemplation
03 - Four by Five
04 - Search for Peace
05 - Blues on the Corner
Доп. информация: Состав:
McCoy Tyner (piano)
Joe Henderson (tenor saxophone)
Ron Carter (bass)
Elvin Jones (drums)
EAC extraction logfile from 24. July 2005, 17:26 for CD
McCoy Tyner / The Real McCoy

Used drive : PLEXTOR CD-R PX-W4824A Adapter: 1 ID: 0
Read mode : Secure with NO C2, accurate stream, disable cache
Read offset correction : 98
Overread into Lead-In and Lead-Out : Yes

Used output format : C:\Programme\FLAC\flac.exe (User Defined Encoder)
320 kBit/s
Additional command line options : -8 -V -T "artist=%a" -T "title=%t" -T "album=%g" -T "date=%y" -T "tracknumber=%n" -T "genre=%m" -T "comment=Blue Note Records - Rudy Van Gelder Edition 7243 4 97807 2 9" %s

Other options :
Fill up missing offset samples with silence : Yes
Delete leading and trailing silent blocks : No
Installed external ASPI interface

Track 1
Filename C:\Upload_Geplant\McCoy Tyner - The Real McCoy (1967) [FLAC] {Blue Note - RVG Edition, 1999} {by hanswurst}\01 - Passion Dance.wav

Pre-gap length 0:00:02.00

Peak level 97.9 %
Track quality 100.0 %
Test CRC B2BA0050
Copy CRC B2BA0050
Copy OK

Track 2
Filename C:\Upload_Geplant\McCoy Tyner - The Real McCoy (1967) [FLAC] {Blue Note - RVG Edition, 1999} {by hanswurst}\02 - Contemplation.wav

Pre-gap length 0:00:03.24

Peak level 97.9 %
Track quality 100.0 %
Test CRC 908101B9
Copy CRC 908101B9
Copy OK

Track 3
Filename C:\Upload_Geplant\McCoy Tyner - The Real McCoy (1967) [FLAC] {Blue Note - RVG Edition, 1999} {by hanswurst}\03 - Four by Five.wav

Pre-gap length 0:00:02.42

Peak level 97.9 %
Track quality 100.0 %
Test CRC 77C1C184
Copy CRC 77C1C184
Copy OK

Track 4
Filename C:\Upload_Geplant\McCoy Tyner - The Real McCoy (1967) [FLAC] {Blue Note - RVG Edition, 1999} {by hanswurst}\04 - Search for Peace.wav

Pre-gap length 0:00:03.70

Peak level 90.3 %
Track quality 100.0 %
Test CRC 8F2720C7
Copy CRC 8F2720C7
Copy OK

Track 5
Filename C:\Upload_Geplant\McCoy Tyner - The Real McCoy (1967) [FLAC] {Blue Note - RVG Edition, 1999} {by hanswurst}\05 - Blues on the Corner.wav

Pre-gap length 0:00:04.36

Peak level 97.9 %
Track quality 100.0 %
Test CRC 641C3BAF
Copy CRC 641C3BAF
Copy OK

No errors occured

End of status report
AUDIOCHECKER v2.0 beta (build 457) - by Dester - opdester@freemail.hu
~~~~~~~~~~~~~~~~~~~~~~~~~~~~~~~~~~
-=== НЕ РЕДАКТИРУЙТЕ ЭТОТ ФАЙЛ! ===-

Путь: ...\McCoy Tyner - The Real McCoy (1967) [Blue Note - RVG Edition, 1999]

1 -=- 01 - Passion Dance.flac -=- CDDA (100%)
2 -=- 02 - Contemplation.flac -=- CDDA (100%)
3 -=- 03 - Four by Five.flac -=- CDDA (100%)
4 -=- 04 - Search for Peace.flac -=- CDDA (100%)
5 -=- 05 - Blues on the Corner.flac -=- CDDA (100%)

Сводка 100,00% CDDA

54543588


Трекер:  [ 28-Янв-2012 13:48 ]

  

Скачать .torrent

Размер .torrent файла 20 KB


Размер: 244 MB
Хэш (hash) релиза: c159d939caadf34a8e991cadd5b9b7d6a80690fb

Еще никто не оставлял запись к записи скачать торрент McCoy Tyner - The Real McCoy . Будь первым!

!Обратная связь