Скачать через торрент музыку McCoy Tyner - Tender Moments - 1967, APE бесплатно без регистрации torrent

Если у вас наблюдаются проблемы со скриншотами, переходом по ссылками, скачиванием торрентов - проблемы в блокировщике рекламы AdBlock. #хорошегоДня!


Статистика раздачи
Размер:  232 MB   |    Зарегистрирован:  5 лет 8 месяцев   |    .torrent скачан:  25 раз   |   
Раздают:  1  
   
Загрузка...
 
Автор Сообщение

Umakiro

avatar Umakiro


McCoy Tyner - Tender Moments

Жанр: Jazz
Год выпуска диска: 1967
Производитель диска: USA
Аудио кодек: APE
Тип рипа: image+.cue
Битрейт аудио: lossless
Продолжительность: 0:37:47
Трэклист:
01 Mode To John
02 Man From Tanganyika
03 The High Priest
04 Utopia
05 All My Yesterdays
06 Lee Plus Three
Exact Audio Copy V0.99 prebeta 4 from 23. January 2008

Отчёт EAC об извлечении, выполненном 5. ноября 2008, 2:17

McCoy Tyner / Tender Moments

Дисковод: PIONEER DVD-RW DVR-108 Adapter: 0 ID: 0

Режим чтения : Достоверность
Использование точного потока : Да
Отключение кэша аудио : Да
Использование указателей C2 : Нет

Коррекция смещения при чтении : 48
Способность читать области Lead-in и Lead-out : Нет
Заполнение пропущенных сэмплов тишиной : Да
Удаление блоков с тишиной в начале и конце : Нет
При вычислениях CRC использовались нулевые сэмплы : Нет
Интерфейс : Установленный внешний ASPI-интерфейс

Выходной формат : Monkey's Audio Lossless Encoder v3.99 DLL
Формат сэмплов : High Lossless Compression

TOC извлечённого CD

Трек | Старт | Длительность | Начальный сектор | Конечный сектор
---------------------------------------------------------------------
1 | 0:00.00 | 5:40.56 | 0 | 25555
2 | 5:40.56 | 6:51.73 | 25556 | 56453
3 | 12:32.54 | 6:05.57 | 56454 | 83885
4 | 18:38.36 | 7:30.71 | 83886 | 117706
5 | 26:09.32 | 6:02.03 | 117707 | 144859
6 | 32:11.35 | 5:36.22 | 144860 | 170081

Характеристики диапазона извлечения и сообщения об ошибках

Выбранный диапазон

Имя файла D:\Новая папка\McCoy Tyner - Tender Moments.ape

Пиковый уровень 98.0 %
Качество диапазона 100.0 %
CRC копии C8A4C57D
Копирование... OK

Ошибок не произошло

Конец отчёта


Трекер:  [ 28-Янв-2012 13:43 ]

  

Скачать .torrent

Размер .torrent файла 18 KB


Размер: 232 MB
Хэш (hash) релиза: bf4a63efec5f687cf89a654682db3c07f5b9b46e

Еще никто не оставлял запись к записи скачать торрент McCoy Tyner - Tender Moments - 1967, APE . Будь первым!

!Обратная связь