Скачать через торрент музыку Louis Smith - Here Comes Louis Smith - 1996, FLAC бесплатно без регистрации torrent

Если у вас наблюдаются проблемы со скриншотами, переходом по ссылками, скачиванием торрентов - проблемы в блокировщике рекламы AdBlock. #хорошегоДня!


Статистика раздачи
Размер:  231 MB   |    Зарегистрирован:  5 лет 8 месяцев   |    .torrent скачан:  26 раз   |   
Раздают:  1  
   
Загрузка...
 
Автор Сообщение

Umakiro

avatar Umakiro


Louis Smith - Here Comes Louis Smith

Жанр: Hard Bop
Год выпуска диска: 1996
Производитель диска: Blue Note
Аудио кодек: FLAC
Тип рипа: tracks+.cue
Битрейт аудио: lossless
Источник: e2k

Трэклист:
1. Tribute to Brownie (Pearson) 6:38
2. Brill's Blues (Smith) 8:22
3. Ande (Smith) 6:42
4. Star Dust (Carmichael) 5:20
5. South Side (Smith) 8:38
6. Val's Blues (Smith) 6:37

Louis Smith (trumpet)
Cannonball Adderley (alto saxophone)
Duke Jordan (piano)
Tommy Flanagan (piano)
Doug Watkins (bass)
Art Taylor (drums)

Recorded in New York on February 4 (track 1, 2, 5), February 9 (track 3, 4, 6), 1957.
 
Exact Audio Copy V0.99 prebeta 3 from 28. July 2007

EAC extraction logfile from 30. November 2007, 7:44

Louis Smith / Here Comes Louis Smith

Used drive : TSSTcorpDVD+-RW TS-H553A Adapter: 0 ID: 2

Read mode : SecureUtilize accurate stream : YesDefeat audio cache : YesMake use of C2 pointers : No

Read offset correction : 6Overread into Lead-In and Lead-Out : NoFill up missing offset samples with silence : YesDelete leading and trailing silent blocks : NoNull samples used in CRC calculations : YesUsed interface : Native Win32 interface for Win NT & 2000Gap handling : Appended to previous track

Used output format : User Defined EncoderSelected bitrate : 768 kBit/sQuality : HighAdd ID3 tag : NoCommand line compressor : C:\Program Files\Exact Audio Copy\FLAC\FLAC.EXEAdditional command line options : -6 -V -T "ARTIST=%a" -T "TITLE=%t" -T "ALBUM=%g" -T "DATE=%y" -T "TRACKNUMBER=%n" -T "GENRE=%m" -T "COMMENT=%e" %s -o %d

TOC of the extracted CD

Track | Start | Length | Start sector | End sector --------------------------------------------------------- 1 | 0:00.00 | 6:37.40 | 0 | 29814 2 | 6:37.40 | 8:22.05 | 29815 | 67469 3 | 14:59.45 | 6:41.40 | 67470 | 97584 4 | 21:41.10 | 5:19.20 | 97585 | 121529 5 | 27:00.30 | 8:38.57 | 121530 | 160436 6 | 35:39.12 | 6:36.30 | 160437 | 190166

Track 1

Filename K:\New Rips\Louis Smith - Here Comes Louis Smith (1957) [FLAC]\01 - Tribute to Brownie.wav

Pre-gap length 0:00:02.00

Peak level 89.1 % Track quality 100.0 % Test CRC E27DD354 Copy CRC E27DD354 Track not present in AccurateRip database Copy OK

Track 2

Filename K:\New Rips\Louis Smith - Here Comes Louis Smith (1957) [FLAC]\02 - Brill's Blues.wav

Pre-gap length 0:00:02.06

Peak level 85.0 % Track quality 99.9 % Test CRC 9C6DB10E Copy CRC 9C6DB10E Track not present in AccurateRip database Copy OK

Track 3

Filename K:\New Rips\Louis Smith - Here Comes Louis Smith (1957) [FLAC]\03 - Ande.wav

Pre-gap length 0:00:02.10

Peak level 84.3 % Track quality 100.0 % Test CRC 5909893E Copy CRC 5909893E Track not present in AccurateRip database Copy OK

Track 4

Filename K:\New Rips\Louis Smith - Here Comes Louis Smith (1957) [FLAC]\04 - Star Dust.wav

Pre-gap length 0:00:01.73

Peak level 84.3 % Track quality 100.0 % Test CRC E1CCBF34 Copy CRC E1CCBF34 Track not present in AccurateRip database Copy OK

Track 5

Filename K:\New Rips\Louis Smith - Here Comes Louis Smith (1957) [FLAC]\05 - South Side.wav

Pre-gap length 0:00:01.90

Peak level 86.7 % Track quality 100.0 % Test CRC 24FFB673 Copy CRC 24FFB673 Track not present in AccurateRip database Copy OK

Track 6

Filename K:\New Rips\Louis Smith - Here Comes Louis Smith (1957) [FLAC]\06 - Val's Blues.wav

Pre-gap length 0:00:02.16

Peak level 86.0 % Track quality 100.0 % Test CRC B9BDC1C9 Copy CRC B9BDC1C9 Track not present in AccurateRip database Copy OK

None of the tracks are present in the AccurateRip database

No errors occurred

End of status report
 
AUDIOCHECKER v2.0 beta (build 457) - by Dester - opdester@freemail.hu

-----------------------------------------------------------Начато: понедельник, 11. 05. 2009. - 22:52.05Найдено файлов: 6

1 -===- E:\torrent\music\Louis Smith - Here Comes\01 - Tribute to Brownie.flac Извлечение успешно выполнено Заключение: этот трек - CDDA с вероятностью 100% Временный файл удалён.

2 -===- E:\torrent\music\Louis Smith - Here Comes\02 - Brill's Blues.flac Извлечение успешно выполнено Заключение: этот трек - CDDA с вероятностью 100% Временный файл удалён.

3 -===- E:\torrent\music\Louis Smith - Here Comes\03 - Ande.flac Извлечение успешно выполнено Заключение: этот трек - CDDA с вероятностью 99% Временный файл удалён.

4 -===- E:\torrent\music\Louis Smith - Here Comes\04 - Star Dust.flac Извлечение успешно выполнено Заключение: этот трек - CDDA с вероятностью 100% Временный файл удалён.

5 -===- E:\torrent\music\Louis Smith - Here Comes\05 - South Side.flac Извлечение успешно выполнено Заключение: этот трек - CDDA с вероятностью 99% Временный файл удалён.

6 -===- E:\torrent\music\Louis Smith - Here Comes\06 - Val's Blues.flac Извлечение успешно выполнено Заключение: этот трек - CDDA с вероятностью 100% Временный файл удалён.

Завершено: понедельник, 11. 05. 2009. - 22:58.38 (Время операции: 0:06.32)-----------------------------------------------------------


Трекер:  [ 28-Янв-2012 13:43 ]

  

Скачать .torrent

Размер .torrent файла 19 KB


Размер: 231 MB
Хэш (hash) релиза: 996b778c790b4e8c0d5873eba4c01c79a01d23ce

Еще никто не оставлял запись к записи скачать торрент Louis Smith - Here Comes Louis Smith - 1996, FLAC . Будь первым!

!Обратная связь