Скачать через торрент музыку Lou Donaldson - The Natural Soul бесплатно без регистрации torrent

Если у вас наблюдаются проблемы со скриншотами, переходом по ссылками, скачиванием торрентов - проблемы в блокировщике рекламы AdBlock. #хорошегоДня!


Статистика раздачи
Размер:  321 MB   |    Зарегистрирован:  5 лет 8 месяцев   |    .torrent скачан:  24 раза   |   
Раздают:  1  
   
Загрузка...
 
Автор Сообщение

Umakiro

avatar Umakiro


Lou Donaldson - The Natural Soul
Жанр: Hard-Bop, Soul Jazz
Страна-производитель диска: USA
Год издания диска: 2003
Издатель (лейбл): Blue Note
Номер по каталогу: 42307
Аудио кодек: FLAC (*.flac)
Тип рипа: image+.cue
Битрейт аудио: lossless
Продолжительность: 49:09
Наличие сканов в содержимом раздачи: yes
Источник (релизер): jbc, thanks hungaropitecus

Треклист:
1. Funky Mama
2. Love Walked In
3. Spaceman Twist
4. Sow Belly Blues
5. That’s All
6. Nice ‘N Greasy
7. People Will Say We’re In Love (bonus track)

Исполнители:
Lou Donaldson - Alto Saxophone
Tommy Turrentine - Trumpet
Grant Green - Guitar
Big John Patton - Organ
Ben Dixon - Drums

Recorded at the Van Gelder Studio, NJ on May 9, 1962 (remastered by Rudy Van Gelder in 2002).
 
Exact Audio Copy V0.99 prebeta 4 from 23. January 2008

EAC extraction logfile from 19. October 2010, 9:49

Lou Donaldson / The Natural Soul

Used drive : _NEC DVD_RW ND-3500AG Adapter: 0 ID: 0

Read mode : SecureUtilize accurate stream : YesDefeat audio cache : YesMake use of C2 pointers : No

Read offset correction : 48Overread into Lead-In and Lead-Out : NoFill up missing offset samples with silence : YesDelete leading and trailing silent blocks : NoNull samples used in CRC calculations : YesUsed interface : Native Win32 interface for Win NT & 2000

Used output format : User Defined EncoderSelected bitrate : 768 kBit/sQuality : HighAdd ID3 tag : NoCommand line compressor : C:\Program Files\Exact Audio Copy\FLAC\FLAC.EXEAdditional command line options : -6 -V -T "ARTIST=%a" -T "TITLE=%t" -T "ALBUM=%g" -T "DATE=%y" -T "TRACKNUMBER=%n" -T "GENRE=%m" -T "COMMENT=%e" %s -o %d

TOC of the extracted CD

Track | Start | Length | Start sector | End sector --------------------------------------------------------- 1 | 0:00.00 | 9:08.25 | 0 | 41124 2 | 9:08.25 | 5:12.51 | 41125 | 64575 3 | 14:21.01 | 5:38.41 | 64576 | 89966 4 | 19:59.42 | 10:13.36 | 89967 | 135977 5 | 30:13.03 | 5:36.20 | 135978 | 161197 6 | 35:49.23 | 5:27.02 | 161198 | 185724 7 | 41:16.25 | 7:53.01 | 185725 | 221200

Range status and errors

Selected range

Filename J:\eMusic\Rip\Lou Donaldson - The Natural Soul.wav

Peak level 97.9 % Range quality 100.0 % Test CRC 1F49C630 Copy CRC 1F49C630 Copy OK

No errors occurred

AccurateRip summary

Track 1 accurately ripped (confidence 11) [83095651]Track 2 accurately ripped (confidence 11) [99F1741D]Track 3 accurately ripped (confidence 11) [4380766D]Track 4 accurately ripped (confidence 11) [E223C81D]Track 5 accurately ripped (confidence 11) [217B2500]Track 6 accurately ripped (confidence 11) [B6110C07]Track 7 accurately ripped (confidence 11) [286268A1]

All tracks accurately ripped

End of status report
The Natural Soul finds Lou Donaldson delving deeply into soul-jazz, recording a set of funky, greasy instrumentals with only a few references to hard bop. Donaldson occasionally sounds a little awkward with the relaxed groove of The Natural Soul, as does trumpeter Tommy Turrentine, but the trio of guitarist Grant Green, organist John Patton, and drummer Ben Dixon keep things cooking. Green and Patton's solos often burn and are always invigorating, and Lou frequently matches their heights. The original compositions -- which form the bulk of the album -- aren't much more than blues and soul vamps, but they provide an excellent foundation for the combo to work hot grooves. And, in the end, that's what The Natural Soul is about -- groove. It maintains the high standards Donaldson established with his first soul-jazz foray, Here 'Tis, and remains one of his best records in that genre.
Лу Дональдсон (Lou Donaldson) - американский джазовый альт-саксофонист, родился 1 ноября 1926 года в Северной Каролине. Начал играть на кларнете, когда ему было 15 лет. Закончив колледж, Лу отправляется на службу в Военно-морской флот, где продолжает набираться музыкального опыта, играя в военном оркестре. Перебравшись в Нью-Йорк в 1952 году он дебютировал на лейбле Blue Note в составе квинтета вибрафониста Милта Джексона. В 1954-м Доналдсон вошел в состав квинтета барабанщика Арта Блэйки, приняв участие в легендарном концерте в нью-йоркском клубе "Бердлэнд", запись которого превратилась в эпохальный альбом "A Night At Birdland". Правда, Доналдсон так и не попал в состав Jazz Messengers, сформированных Артом Блэйки вскоре после этого знаменитого концерта - он записывался с Телониусом Монком, Клиффордом Брауном и Джимми Смитом, но главным образом работал с собственными ансамблями, став одним из пионеров соул-джаза и ритм-энд-блюза, объединив данные направления с бибопом. Именно это соединение легло в основу исполнительского стиля Доналдсона. До 1963 года он сотрудничал с "Blue Note", затем ненадолго перебрался на "Cadet" и "Argo". Когда после четырехлетнего перерыва он в 1967 г. вернулся на "Blue Note", ритм-н-блюз и его более современные производные (соул, фанк) стали превалировать в игре саксофониста, так что многие критики даже объявили его работы конца 60-х - начала 70-х чисто коммерческими. Однако, после значительного перерыва в записях, на волне подъема интереса к акустическому джазовому мэйнстриму в начале 1980-х Лу Доналдсон вновь возник на горизонте, уже достаточно редко изменяя своему хардбоповому прошлому и стилю, за который он и был любим поклонниками его творчества.[/b][/url]


Трекер:  [ 28-Янв-2012 13:42 ]

  

Скачать .torrent

Размер .torrent файла 13 KB


Размер: 321 MB
Хэш (hash) релиза: 92559adace72cf4fe3a87d89fed377a36c87b37b

Еще никто не оставлял запись к записи скачать торрент Lou Donaldson - The Natural Soul . Будь первым!

!Обратная связь