Скачать через торрент музыку Lou Donaldson - Lush Life бесплатно без регистрации torrent

Если у вас наблюдаются проблемы со скриншотами, переходом по ссылками, скачиванием торрентов - проблемы в блокировщике рекламы AdBlock. #хорошегоДня!


Статистика раздачи
Размер:  227 MB   |    Зарегистрирован:  5 лет 8 месяцев   |    .torrent скачан:  38 раз   |   
Раздают:  1  
   
Загрузка...
 
Автор Сообщение

Umakiro

avatar Umakiro


Lou Donaldson - Lush Life

Жанр: Soul-Jazz
Год выпуска диска: 1967 (2007 Remaster)
Производитель диска: Blue Note RVG Remaster (0946 3 74214 2 0)
Аудио кодек: FLAC
Тип рипа: image+.cue
Битрейт аудио: lossless
Продолжительность: 35:16

Трэклист:
01. Sweet Slumber (Millinder-Woode-Neiberg)
02. You've Changed (B. Carey-C. Fischer)
03. The Good Life (Distel-Reardon-Broussole)
04. Star Dust (Hoagy Carmichael)
05. What Will I Tell My Heart (Lawrence-Tinturin-Gordon)
06. It Might as Well Be Spring (R. Rodgers-O. Hammerstein)
07. Sweet and Lovely (Arnheim-Tobias-Lemore)

Personnel:
Lou Donaldson - alto sax,
Jerry Dodgion - alto sax, flute,
Wayne Shorter - tenor sax,
Pepper Adams - baritone sax,
Freddie Hubbard - trumpet,
Garnett Brown - trombone,
McCoy Tyner - piano,
Ron Carter - bass,
Al Harewood - drums.

Produced by Alfred Lion.
Originally recorded on January 20, 1967 at the Van Gelder Studio, Englewood Cliffs, New Jersey.
Remastered in 2006 by Rudy Van Gelder.
After brief sojourns at Argo and Cadet, Lou Donaldson marked his 1967 return by recording Lush Life, the grandest project he ever attempted. With its plush arrangements and unabashedly pretty melodies, Lush Life stands in stark contrast to everything else he cut in the '60s. There are no blues, no stabs at soul-jazz grooves, no hard bop -- only sweet, sensitive renditions of romantic standards. Donaldson shone on ballads before, but it's nevertheless surprising how successful he is on this set of slow love songs. His tone is full and elegant -- it's easy to get lost in his rich readings of these familiar melodies, as well as his slyly seductive improvisations. Of course, it helps that his instrumental backdrops are as lovely as those his nine-piece backing band provide. Nonets are unwieldy, to be certain, but Duke Pearson's arrangements are clean, sparkling, and attractive, and the superstar band -- Wayne Shorter (tenor sax), Jerry Dodgion (alto sax, flute), Pepper Adams (bari sax), Freddie Hubbard (trumpet), Garnett Brown (trombone), McCoy Tyner (piano), Ron Carter (bass), Al Harewood (drums) -- knows enough to provide sympathetic support and not steal the show. When they do take solos, it enhances Donaldson's original statements, and helps make Lush Life the singularly enchanting record it is.

Код:

Exact Audio Copy V0.99 prebeta 4 from 23. January 2008

EAC extraction logfile from 1. March 2008, 18:50

Lou Donaldson / Lush Life

Used drive  : ATAPI   DVD A  DH20A3H   Adapter: 1  ID: 1

Read mode               : Secure
Utilize accurate stream : Yes
Defeat audio cache      : Yes
Make use of C2 pointers : No

Read offset correction                      : 6
Overread into Lead-In and Lead-Out          : Yes
Fill up missing offset samples with silence : Yes
Delete leading and trailing silent blocks   : No
Null samples used in CRC calculations       : Yes
Used interface                              : Installed external ASPI interface

Used output format              : User Defined Encoder
Selected bitrate                : 320 kBit/s
Quality                         : High
Add ID3 tag                     : No
Command line compressor         : C:\Program Files\FLAC\flac.exe
Additional command line options :  -V -8 -T "artist=%a" -T "title=%t" -T "album=%g" -T "date=%y" -T "tracknumber=%n" -T "genre=%m" %s

TOC of the extracted CD

     Track |   Start  |  Length  | Start sector | End sector
    ---------------------------------------------------------
        1  |  0:00.00 |  5:56.30 |         0    |    26729
        2  |  5:56.30 |  4:23.40 |     26730    |    46494
        3  | 10:19.70 |  4:53.70 |     46495    |    68539
        4  | 15:13.65 |  3:40.23 |     68540    |    85062
        5  | 18:54.13 |  4:25.33 |     85063    |   104970
        6  | 23:19.46 |  5:58.02 |    104971    |   131822
        7  | 29:17.48 |  5:58.50 |    131823    |   158722

Range status and errors

Selected range

     Filename D:\WinRar\Lou Donaldson - Lush Life (1967 RVG)[FLAC Full Scans]\Lou Donaldson - Lush Life.wav

     Peak level 98.0 %
     Range quality 100.0 %
     Test CRC 331C708E
     Copy CRC 331C708E
     Copy OK

No errors occurred

AccurateRip summary

Track  1  accurately ripped (confidence 1)  [1E34333B]
Track  2  accurately ripped (confidence 1)  [D02CD4EB]
Track  3  accurately ripped (confidence 1)  [60486699]
Track  4  accurately ripped (confidence 1)  [C83F412B]
Track  5  accurately ripped (confidence 1)  [E22556DB]
Track  6  accurately ripped (confidence 1)  [090ED64E]
Track  7  accurately ripped (confidence 1)  [381FB179]

All tracks accurately ripped

End of status report
Обложки есть. Благодарность за релиз - Mazeppa (hqshare).

Трекер:  [ 28-Янв-2012 13:42 ]

  

Скачать .torrent

Размер .torrent файла 18 KB


Размер: 227 MB
Хэш (hash) релиза: 157ce09b4f2d899742f8ba221e96ee0338d3dde2

Еще никто не оставлял запись к записи скачать торрент Lou Donaldson - Lush Life . Будь первым!

!Обратная связь