Скачать через торрент музыку Lou Donaldson - Lou Takes Off {RVG Edition} - 1957, FLAC бесплатно без регистрации torrent

Если у вас наблюдаются проблемы со скриншотами, переходом по ссылками, скачиванием торрентов - проблемы в блокировщике рекламы AdBlock. #хорошегоДня!


Статистика раздачи
Размер:  290 MB   |    Зарегистрирован:  5 лет 8 месяцев   |    .torrent скачан:  29 раз   |   
Раздают:  1  
   
Загрузка...
 
Автор Сообщение

Umakiro

avatar Umakiro


Lou Donaldson - Lou Takes Off {RVG Edition}

Жанр: Hard Bop
Год выпуска диска: 1957
Производитель диска: USA
Аудио кодек: FLAC
Тип рипа: image+.cue
Битрейт аудио: lossless
Продолжительность: 38:19
Лейбл: Blue Note
Источник: NoNaMe

Трэклист:
1 Sputnik
2 Dewey Square
3 Strollin' In
4 Groovin' High

Музыканты:
Lou Donaldson, tenor sax
Donald Byrd, trumpet
Curtis Fuller, trombone
Sonny Clark, piano
George Joyner, bass
Art Taylor, drums

Originally recorded on December 15, 1957 at the Van Gelder Studio, Hackensack, New Jersey
Remastered in 2008 by Rudy Van Gelder
 
Exact Audio Copy V0.99 prebeta 3 from 28. July 2007

Отчёт EAC об извлечении, выполненном 16. декабря 2008, 14:26

Lou Donaldson / Lou Takes Off

Дисковод: HL-DT-STDVD-RAM GSA-H55N Adapter: 0 ID: 0

Режим чтения : ДостоверностьИспользование точного потока : ДаОтключение кэша аудио : ДаИспользование указателей C2 : Нет

Коррекция смещения при чтении : 102Способность читать области Lead-in и Lead-out : НетЗаполнение пропущенных сэмплов тишиной : ДаУдаление блоков с тишиной в начале и конце : НетПри вычислениях CRC использовались нулевые сэмплы : НетИнтерфейс : Установленный внешний ASPI-интерфейс

Выходной формат : Пользовательский кодировщикВыбранный битрейт : 768 kBit/sКачество : ВысокийДобавление ID3-тэга : НетУтилита сжатия : C:\Program Files\Exact Audio Copy\FLAC\FLAC.EXEДополнительные параметры : -6 -V -T "ARTIST=%a" -T "TITLE=%t" -T "ALBUM=%g" -T "DATE=%y" -T "TRACKNUMBER=%n" -T "GENRE=%m" -T "COMMENT=%e" %s -o %d

TOC извлечённого CD

Трек | Старт | Длительность | Начальный сектор | Конечный сектор --------------------------------------------------------------------- 1 | 0:00.00 | 10:05.57 | 0 | 45431 2 | 10:05.57 | 7:16.74 | 45432 | 78205 3 | 17:22.56 | 14:34.28 | 78206 | 143783 4 | 31:57.09 | 6:22.62 | 143784 | 172495

Характеристики диапазона извлечения и сообщения об ошибках

Выбранный диапазон

Имя файла C:\Users\Миша\Documents\Lou Donaldson - Lou Takes Off\Lou Donaldson - Lou Takes Off.wav

Пиковый уровень 97.9 % Качество диапазона 100.0 % CRC копии 1472706D Копирование... OK

Ошибок не произошло

AccurateRip: сводка

Трек 1 нет в базе данныхТрек 2 нет в базе данныхТрек 3 нет в базе данныхТрек 4 нет в базе данных

Ни одного трека нет в базе AccurateRip

Конец отчёта
 
AUDIOCHECKER v1.2 - by Dester - opdester@freemail.hu~~~~~~~~~~~~~~~~~

1 -===- E:\Up-Down\Lou Donaldson - Lou Takes Off\Lou Donaldson - Lou Takes Off.flac Extracted successfully Conclusion: This track looks like CDDA with probability 100%


Трекер:  [ 28-Янв-2012 13:41 ]

  

Скачать .torrent

Размер .torrent файла 12 KB


Размер: 290 MB
Хэш (hash) релиза: eb371d1e5cc9ab8571f7e7a30a9aba5a66f84ee3

Еще никто не оставлял запись к записи скачать торрент Lou Donaldson - Lou Takes Off {RVG Edition} - 1957, FLAC . Будь первым!

!Обратная связь