Скачать через торрент музыку Lou Donaldson - Gravy Train {RVG Edition} - 1961, FLAC бесплатно без регистрации torrent

Если у вас наблюдаются проблемы со скриншотами, переходом по ссылками, скачиванием торрентов - проблемы в блокировщике рекламы AdBlock. #хорошегоДня!


Статистика раздачи
Размер:  383 MB   |    Зарегистрирован:  5 лет 8 месяцев   |    .torrent скачан:  32 раза   |   
Раздают:  1  
   
Загрузка...
 
Автор Сообщение

Umakiro

avatar Umakiro


Lou Donaldson - Gravy Train {RVG Edition}

Жанр: Hard Bop
Год выпуска диска: 1961
Производитель диска: USA
Аудио кодек: FLAC
Тип рипа: image+.cue
Битрейт аудио: lossless
Продолжительность: 54:31
Лейбл: Blue Note
Источник: NoNaMe

Трэклист:
1 Gravy Train
2 South of the Border
3 Polka Dots and Moonbeams
4 Avalon
5 Candy
6 Twist Time
7 The Glory of Love
8 Gravy Train [alternate take]
9 The Glory of Love [alternate take]

Музыканты:
Lou Donaldson, tenor sax
Herman Foster, piano
Ben Tucker, bass
Dave Bailey, drums
Alec Dorsey, congas

Originally recorded on April 27, 1961 at the Van Gelder Studio, Englewood Cliffs, New Jersey
Remastered in 2007 by Rudy Van Gelder
 
Exact Audio Copy V0.99 prebeta 4 from 23. January 2008

EAC extraction logfile from 25. February 2008, 21:25

Lou Donaldson / Gravy Train

Used drive : ATAPI DVD A DH20A3H Adapter: 1 ID: 1

Read mode : SecureUtilize accurate stream : YesDefeat audio cache : YesMake use of C2 pointers : No

Read offset correction : 6Overread into Lead-In and Lead-Out : YesFill up missing offset samples with silence : YesDelete leading and trailing silent blocks : NoNull samples used in CRC calculations : YesUsed interface : Installed external ASPI interface

Used output format : User Defined EncoderSelected bitrate : 320 kBit/sQuality : HighAdd ID3 tag : NoCommand line compressor : C:\Program Files\FLAC\flac.exeAdditional command line options : -V -8 -T "artist=%a" -T "title=%t" -T "album=%g" -T "date=%y" -T "tracknumber=%n" -T "genre=%m" %s

TOC of the extracted CD

Track | Start | Length | Start sector | End sector --------------------------------------------------------- 1 | 0:00.00 | 8:14.39 | 0 | 37088 2 | 8:14.39 | 5:31.50 | 37089 | 61963 3 | 13:46.14 | 4:59.40 | 61964 | 84428 4 | 18:45.54 | 4:15.25 | 84429 | 103578 5 | 23:01.04 | 9:18.15 | 103579 | 145443 6 | 32:19.19 | 6:47.57 | 145444 | 176025 7 | 39:07.01 | 4:04.27 | 176026 | 194352 8 | 43:11.28 | 7:30.56 | 194353 | 228158 9 | 50:42.09 | 3:49.32 | 228159 | 245365

Range status and errors

Selected range

Filename D:\WinRar\Lou Donaldson - Gravy Train(1961 RVG)[FLAC Full Scans]\Lou Donaldson - Gravy Train.wav

Peak level 97.9 % Range quality 100.0 % Test CRC 8037C30B Copy CRC 8037C30B Copy OK

No errors occurred

AccurateRip summary

Track 1 accurately ripped (confidence 1) [D86DA953]Track 2 accurately ripped (confidence 1) [430A8C75]Track 3 accurately ripped (confidence 1) [23F13A9A]Track 4 accurately ripped (confidence 1) [F18E966F]Track 5 accurately ripped (confidence 1) [6A3A7B24]Track 6 accurately ripped (confidence 1) [E7D3008B]Track 7 accurately ripped (confidence 1) [F5C438EB]Track 8 accurately ripped (confidence 1) [8BC5AE98]Track 9 accurately ripped (confidence 1) [A822122E]

All tracks accurately ripped

End of status report
 
AUDIOCHECKER v1.2 - by Dester - opdester@freemail.hu~~~~~~~~~~~~~~~~~

1 -===- E:\temp\Lou_Takes_Off\Lou Donaldson - Lou Takes Off\CDImage.ape Extracted successfully Conclusion: This track looks like CDDA with probability 100%


Трекер:  [ 28-Янв-2012 13:40 ]

  

Скачать .torrent

Размер .torrent файла 16 KB


Размер: 383 MB
Хэш (hash) релиза: 3d13b18da50cbc2696be3038c910a00e5a7a942a

Еще никто не оставлял запись к записи скачать торрент Lou Donaldson - Gravy Train {RVG Edition} - 1961, FLAC . Будь первым!

!Обратная связь