Скачать через торрент музыку Lou Donaldson - Here Tis {RVG Edition} - 1961, FLAC бесплатно без регистрации torrent

Если у вас наблюдаются проблемы со скриншотами, переходом по ссылками, скачиванием торрентов - проблемы в блокировщике рекламы AdBlock. #хорошегоДня!


Статистика раздачи
Размер:  265 MB   |    Зарегистрирован:  5 лет 8 месяцев   |    .torrent скачан:  31 раз   |   
Раздают:  1  
   
Загрузка...
 
Автор Сообщение

Umakiro

avatar Umakiro


Lou Donaldson - Here 'Tis {RVG Edition}

Жанр: Soul-Jazz, Hard Bop
Год выпуска диска: 1961
Производитель диска: USA
Аудио кодек: FLAC
Тип рипа: image+.cue
Битрейт аудио: lossless
Продолжительность: 38:56
Лейбл: Blue Note

Трэклист:
1 A Foggy Day
2 Here 'tis
3 Cool Blues
4 Watusi Jump
5 Walk Wid Me

Музыканты:
Lou Donaldson, alto sax
Grant Green, guitar
Baby Face Wilette, organ
Dave Bailey, drums
Exact Audio Copy V0.99 prebeta 4 from 23. January 2008

Отчёт EAC об извлечении, выполненном 2. февраля 2009, 23:39

Lou Donaldson / Here 'Tis

Дисковод: TSSTcorpCDDVDW SH-S202J Adapter: 3 ID: 0

Режим чтения : Достоверность
Использование точного потока : Да
Отключение кэша аудио : Да
Использование указателей C2 : Нет

Коррекция смещения при чтении : 6
Способность читать области Lead-in и Lead-out : Нет
Заполнение пропущенных сэмплов тишиной : Да
Удаление блоков с тишиной в начале и конце : Нет
При вычислениях CRC использовались нулевые сэмплы : Да
Интерфейс : Установленный внешний ASPI-интерфейс

Выходной формат : Пользовательский кодировщик
Выбранный битрейт : 768 kBit/s
Качество : Высокий
Добавление ID3-тэга : Нет
Утилита сжатия : C:\Program Files\Exact Audio Copy\FLAC\FLAC.EXE
Дополнительные параметры : -6 -V -T "ARTIST=%a" -T "TITLE=%t" -T "ALBUM=%g" -T "DATE=%y" -T "TRACKNUMBER=%n" -T "GENRE=%m" -T "COMMENT=%e" %s -o %d

TOC извлечённого CD

Трек | Старт | Длительность | Начальный сектор | Конечный сектор
---------------------------------------------------------------------
1 | 0:00.00 | 6:35.36 | 0 | 29660
2 | 6:35.36 | 9:23.23 | 29661 | 71908
3 | 15:58.59 | 6:50.39 | 71909 | 102697
4 | 22:49.23 | 7:30.21 | 102698 | 136468
5 | 30:19.44 | 8:36.37 | 136469 | 175205

Характеристики диапазона извлечения и сообщения об ошибках

Выбранный диапазон

Имя файла D:\My Music\ext\Архивы\Lou Donaldson - Here 'Tis\Lou Donaldson - Here 'Tis.wav

Пиковый уровень 97.9 %
Качество диапазона 99.9 %
CRC копии 715BF641
Копирование... OK

Ошибок не произошло

Конец отчёта
Доп. информация:
Originally recorded on January 23, 1961 at the Van Gelder Studio, Englewood Cliffs, New Jersey
Remastered in 2007 by Rudy Van Gelder

Трекер:  [ 28-Янв-2012 13:40 ]

  

Скачать .torrent

Размер .torrent файла 11 KB


Размер: 265 MB
Хэш (hash) релиза: c91e420b137582d06d5fe10fabc7a7c7e44535f2

Еще никто не оставлял запись к записи скачать торрент Lou Donaldson - Here Tis {RVG Edition} - 1961, FLAC . Будь первым!

!Обратная связь