Скачать через торрент музыку Lee Morgan - Volume 3 {RVG Edition} - 1957, FLAC бесплатно без регистрации torrent

Если у вас наблюдаются проблемы со скриншотами, переходом по ссылками, скачиванием торрентов - проблемы в блокировщике рекламы AdBlock. #хорошегоДня!


Статистика раздачи
Размер:  347 MB   |    Зарегистрирован:  5 лет 8 месяцев   |    .torrent скачан:  29 раз   |   
Раздают:  1  
   
Загрузка...
 
Автор Сообщение

Umakiro

avatar Umakiro


Lee Morgan - Volume 3 {RVG Edition}

Жанр: Hard Bop
Год выпуска диска: 1957
Производитель диска: USA
Аудио кодек: FLAC
Тип рипа: image+.cue
Битрейт аудио: lossless
Продолжительность: 44:48
Лейбл: Blue Note
Источник: NoNaMe

Трэклист:
1 Hasaan's Dream
2 Domingo
3 I Remember Clifford
4 Mesabi Chant
5 Tip-toeing
6 Tip-toeing [alternate take]

Музыканты:
Lee Morgan - trumpet
Gygy Gryce - alto sax, flute
Benny Golson - tenor sax
Wynton Kelly - piano
Paul Chambers - bass
Charlie Persip - drums

Originally recorded on March 24, 1957 at the Van Gelder Studio, Hackensack, New Jersey
Remastered in 2007 by Rudy Van Gelder
 
Exact Audio Copy V0.99 prebeta 3 from 28. July 2007

EAC extraction logfile from 22. September 2009, 1:53

Lee Morgan / Volume 3

Used drive : HL-DT-STDVD-RAM GSA-H55N Adapter: 0 ID: 0

Read mode : SecureUtilize accurate stream : YesDefeat audio cache : YesMake use of C2 pointers : No

Read offset correction : 102Overread into Lead-In and Lead-Out : NoFill up missing offset samples with silence : YesDelete leading and trailing silent blocks : NoNull samples used in CRC calculations : NoUsed interface : Installed external ASPI interface

Used output format : User Defined EncoderSelected bitrate : 768 kBit/sQuality : HighAdd ID3 tag : NoCommand line compressor : C:\Program Files\Exact Audio Copy\FLAC\FLAC.EXEAdditional command line options : -6 -V -T "ARTIST=%a" -T "TITLE=%t" -T "ALBUM=%g" -T "DATE=%y" -T "TRACKNUMBER=%n" -T "GENRE=%m" -T "COMMENT=%e" %s -o %d

TOC of the extracted CD

Track | Start | Length | Start sector | End sector --------------------------------------------------------- 1 | 0:00.00 | 8:46.07 | 0 | 39456 2 | 8:46.07 | 9:21.39 | 39457 | 81570 3 | 18:07.46 | 7:09.03 | 81571 | 113748 4 | 25:16.49 | 6:10.65 | 113749 | 141563 5 | 31:27.39 | 6:41.29 | 141564 | 171667 6 | 38:08.68 | 6:40.05 | 171668 | 201672

Range status and errors

Selected range

Filename C:\Users\Миша\Documents\Lee Morgan - Volume 3\Lee Morgan - Volume 3.wav

Peak level 97.9 % Range quality 99.9 % Copy CRC 49D6C8E0 Copy OK

No errors occurred

AccurateRip summary

Track 1 cannot be verified as accurate (confidence 5) [674A1C30], AccurateRip returned [19F090E1]Track 2 cannot be verified as accurate (confidence 5) [F5A04D19], AccurateRip returned [774A979C]Track 3 cannot be verified as accurate (confidence 5) [9C524D32], AccurateRip returned [10CDFE7C]Track 4 cannot be verified as accurate (confidence 5) [3E6AD15B], AccurateRip returned [732A4467]Track 5 cannot be verified as accurate (confidence 5) [AAB0468A], AccurateRip returned [769F25D4]Track 6 cannot be verified as accurate (confidence 5) [B6F96D47], AccurateRip returned [6D6446A0]

No tracks could be verified as accurateYou may have a different pressing from the one(s) in the database

End of status report
 
AUDIOCHECKER v1.2 - by Dester - opdester@freemail.hu~~~~~~~~~~~~~~~~~

1 -===- E:\Up-Down\Lee Morgan - Volume 3\Lee Morgan - Volume 3.flac Extracted successfully Conclusion: This track looks like CDDA with probability 100%


Трекер:  [ 28-Янв-2012 13:38 ]

  

Скачать .torrent

Размер .torrent файла 14 KB


Размер: 347 MB
Хэш (hash) релиза: b92f8d91e705b269c9f22991f4a8c795721a55a0

Еще никто не оставлял запись к записи скачать торрент Lee Morgan - Volume 3 {RVG Edition} - 1957, FLAC . Будь первым!

!Обратная связь