Скачать через торрент музыку Lee Morgan - Volume 2 - Sextet {RVG Edition} - 1956, FLAC бесплатно без регистрации torrent

Если у вас наблюдаются проблемы со скриншотами, переходом по ссылками, скачиванием торрентов - проблемы в блокировщике рекламы AdBlock. #хорошегоДня!


Статистика раздачи
Размер:  264 MB   |    Зарегистрирован:  5 лет 8 месяцев   |    .torrent скачан:  22 раза   |   
Раздают:  1  
   
Загрузка...
 
Автор Сообщение

Umakiro

avatar Umakiro


Lee Morgan - Volume 2 - Sextet {RVG Edition}

Жанр: Hard Bop
Год выпуска диска: 1956
Производитель диска: USA
Аудио кодек: FLAC
Тип рипа: tracks+.cue
Битрейт аудио: lossless
Продолжительность: 40:35
Лейбл: Blue Note
Источник:

Трэклист:
1 Whisper Not
2 Latin Hangover
3 His Sister
4 Slightly Hep
5 Where Am I
6 D's Fink

Музыканты:
Lee Morgan - trumpet
Kenny Rodgers - alto sax
Hank Mobley - tenor sax
Horace Silver - piano
Paul Chambers - bass
Charlie Persip - drums

Originally recorded on December 2, 1956 at the Van Gelder Studio, Hackensack, New Jersey
Remastered in 2007 by Rudy Van Gelder
 
Exact Audio Copy V0.99 prebeta 5 from 4. May 2009

EAC extraction logfile from 24. December 2009, 22:18

Lee Morgan / Volume 2: Sextet

Used drive : TSSTcorpCD/DVDW TS-H552L Adapter: 3 ID: 0

Read mode : SecureUtilize accurate stream : YesDefeat audio cache : YesMake use of C2 pointers : No

Read offset correction : 6Overread into Lead-In and Lead-Out : NoFill up missing offset samples with silence : YesDelete leading and trailing silent blocks : NoNull samples used in CRC calculations : YesUsed interface : Native Win32 interface for Win NT & 2000Gap handling : Appended to previous track

Used output format : User Defined EncoderSelected bitrate : 1024 kBit/sQuality : HighAdd ID3 tag : NoCommand line compressor : C:\Program Files\FLAC\flac.exeAdditional command line options : -6 -V -T "ARTIST=%a" -T "TITLE=%t" -T "ALBUM=%g" -T "DATE=%y" -T "TRACKNUMBER=%n" -T "GENRE=%m" -T "COMMENT=EAC FLAC -6" %s

TOC of the extracted CD

Track | Start | Length | Start sector | End sector --------------------------------------------------------- 1 | 0:00.00 | 7:20.52 | 0 | 33051 2 | 7:20.52 | 6:43.59 | 33052 | 63335 3 | 14:04.36 | 6:32.67 | 63336 | 92802 4 | 20:37.28 | 6:27.30 | 92803 | 121857 5 | 27:04.58 | 5:49.25 | 121858 | 148057 6 | 32:54.08 | 7:41.52 | 148058 | 182684

Track 1

Filename C:\Lee Morgan - Volume 2. Sextet (1956) {2007 Rudy Van Gelder Remaster}\01 - Whisper Not.wav

Pre-gap length 0:00:02.00

Peak level 97.9 % Track quality 100.0 % Test CRC 0DDACA16 Copy CRC 0DDACA16 Cannot be verified as accurate (confidence 2) [38434282], AccurateRip returned [031C725C] Copy OK

Track 2

Filename C:\Lee Morgan - Volume 2. Sextet (1956) {2007 Rudy Van Gelder Remaster}\02 - Latin Hangover.wav

Pre-gap length 0:00:02.68

Peak level 97.9 % Track quality 99.9 % Test CRC E48C10E1 Copy CRC E48C10E1 Cannot be verified as accurate (confidence 2) [32FF4370], AccurateRip returned [323BD838] Copy OK

Track 3

Filename C:\Lee Morgan - Volume 2. Sextet (1956) {2007 Rudy Van Gelder Remaster}\03 - His Sister.wav

Pre-gap length 0:00:02.46

Peak level 97.9 % Track quality 100.0 % Test CRC B5687A72 Copy CRC B5687A72 Cannot be verified as accurate (confidence 2) [28E567F3], AccurateRip returned [787F6AE5] Copy OK

Track 4

Filename C:\Lee Morgan - Volume 2. Sextet (1956) {2007 Rudy Van Gelder Remaster}\04 - Slightly Hep.wav

Pre-gap length 0:00:03.14

Peak level 97.9 % Track quality 100.0 % Test CRC 96E1CECD Copy CRC 96E1CECD Cannot be verified as accurate (confidence 2) [4E67AD97], AccurateRip returned [C60E7575] Copy OK

Track 5

Filename C:\Lee Morgan - Volume 2. Sextet (1956) {2007 Rudy Van Gelder Remaster}\05 - Where Am I.wav

Pre-gap length 0:00:03.42

Peak level 97.9 % Track quality 99.9 % Test CRC 6361A3C5 Copy CRC 6361A3C5 Cannot be verified as accurate (confidence 2) [CD78F257], AccurateRip returned [250EA851] Copy OK

Track 6

Filename C:\Lee Morgan - Volume 2. Sextet (1956) {2007 Rudy Van Gelder Remaster}\06 - D's Fink.wav

Pre-gap length 0:00:03.12

Peak level 97.9 % Track quality 100.0 % Test CRC C271D05D Copy CRC C271D05D Cannot be verified as accurate (confidence 2) [EA9EC313], AccurateRip returned [FB8D9BE1] Copy OK

No tracks could be verified as accurateYou may have a different pressing from the one(s) in the database

No errors occurred

End of status report


Трекер:  [ 28-Янв-2012 13:38 ]

  

Скачать .torrent

Размер .torrent файла 11 KB


Размер: 264 MB
Хэш (hash) релиза: 46c164809cd51d3bb16c6b9eb53c7cc77cf6b5fa

Еще никто не оставлял запись к записи скачать торрент Lee Morgan - Volume 2 - Sextet {RVG Edition} - 1956, FLAC . Будь первым!

!Обратная связь