Скачать через торрент музыку Lee Morgan - The Rumproller - 1965, FLAC бесплатно без регистрации torrent

Если у вас наблюдаются проблемы со скриншотами, переходом по ссылками, скачиванием торрентов - проблемы в блокировщике рекламы AdBlock. #хорошегоДня!


Статистика раздачи
Размер:  229 MB   |    Зарегистрирован:  5 лет 8 месяцев   |    .torrent скачан:  35 раз   |   
Раздают:  1  
   
Загрузка...
 
Автор Сообщение

Umakiro

avatar Umakiro


Lee Morgan - The Rumproller

Жанр: jazz
Год выпуска диска: 1965
Производитель диска: EU
Аудио кодек: FLAC
Тип рипа: image+.cue
Битрейт аудио: lossless
Продолжительность: 48:16

Трэклист:
01. The Rumproller
02. Desert Moonlight
03. Eclipso
04. Edda
05. The Lady
06. Venus Di Mildrew*
*Not part of original album

Original recording and 1999 remastering by Rudy Van Gelder

The Band:
Lee Morgan: trumpet
Joe Henderson: tenor sax
Ronnie Mathews: piano
Victor Sproles: bass
Billy Higgins: drums
Exact Audio Copy V0.99 prebeta 4 from 23. January 2008

Отчёт EAC об извлечении, выполненном 7. января 2009, 5:45

Lee Morgan / The Rumproller

Дисковод: Optiarc DVD RW AD-7191S Adapter: 2 ID: 0

Режим чтения : Достоверность
Использование точного потока : Да
Отключение кэша аудио : Да
Использование указателей C2 : Нет

Коррекция смещения при чтении : 6
Способность читать области Lead-in и Lead-out : Нет
Заполнение пропущенных сэмплов тишиной : Да
Удаление блоков с тишиной в начале и конце : Нет
При вычислениях CRC использовались нулевые сэмплы : Да
Интерфейс : Встроенный Win32-интерфейс для Win NT/2000

Выходной формат : Пользовательский кодировщик
Выбранный битрейт : 768 kBit/s
Качество : Высокий
Добавление ID3-тэга : Нет
Утилита сжатия : C:\Program Files\Exact Audio Copy\FLAC\FLAC.EXE
Дополнительные параметры : -6 -V -T "ARTIST=%a" -T "TITLE=%t" -T "ALBUM=%g" -T "DATE=%y" -T "TRACKNUMBER=%n" -T "GENRE=%m" -T "COMMENT=%e" %s -o %d

TOC извлечённого CD

Трек | Старт | Длительность | Начальный сектор | Конечный сектор
---------------------------------------------------------------------
1 | 0:00.00 | 10:29.18 | 0 | 47192
2 | 10:29.18 | 9:26.04 | 47193 | 89646
3 | 19:55.22 | 6:56.59 | 89647 | 120905
4 | 26:52.06 | 7:23.66 | 120906 | 154196
5 | 34:15.72 | 7:34.40 | 154197 | 188286
6 | 41:50.37 | 6:26.16 | 188287 | 217252

Характеристики диапазона извлечения и сообщения об ошибках

Выбранный диапазон

Имя файла F:\U-TORRENT\Lee Morgan - The Rumproller\Lee Morgan - The Rumproller.wav

Пиковый уровень 97.9 %
Качество диапазона 100.0 %
CRC копии E008E0B7
Копирование... OK

Ошибок не произошло

AccurateRip: сводка

Трек 1 нет в базе данных
Трек 2 нет в базе данных
Трек 3 нет в базе данных
Трек 4 нет в базе данных
Трек 5 нет в базе данных
Трек 6 нет в базе данных

Ни одного трека нет в базе AccurateRip

Конец отчёта


Трекер:  [ 28-Янв-2012 13:37 ]

  

Скачать .torrent

Размер .torrent файла 18 KB


Размер: 229 MB
Хэш (hash) релиза: 442bf5568a833acd111f4a01a642dc6a4ff15bdc

Еще никто не оставлял запись к записи скачать торрент Lee Morgan - The Rumproller - 1965, FLAC . Будь первым!

!Обратная связь