Скачать через торрент музыку Lee Morgan - Search for the new land - 1964 бесплатно без регистрации torrent

Если у вас наблюдаются проблемы со скриншотами, переходом по ссылками, скачиванием торрентов - проблемы в блокировщике рекламы AdBlock. #хорошегоДня!


Статистика раздачи
Размер:  272 MB   |    Зарегистрирован:  5 лет 8 месяцев   |    .torrent скачан:  25 раз   |   
Раздают:  1  
   
Загрузка...
 
Автор Сообщение

Umakiro

avatar Umakiro


Search for the new land

Жанр: Jazz
Год выпуска диска: 1964
Производитель диска: USA (Blue Note)
Продолжительность: 42:13
Формат: FLAC TRACKS + CUE + ARTWORK

Трэклист:
"Search For The New Land" – 15:45
"The Joker" – 5:04
"Mr. Kenyatta" – 8:43
"Melancholee" – 6:14
"Morgan The Pirate" – 6:31
Доп. информация: Grant Green – guitar
Herbie Hancock – piano
Billy Higgins – drums
Lee Morgan – trumpet
Wayne Shorter – tenor sax
Reggie Workman – bass
EAC extraction logfile from 24. June 2007, 9:39 for CD
Lee Morgan / Search for the New Land

Used drive : SONY CD-RW CRX230EE Adapter: 0 ID: 1
Read mode : Secure with NO C2, accurate stream, disable cache
Read offset correction : 6
Overread into Lead-In and Lead-Out : No

Used output format : C:\Utilities\flac\flac-1.1.4-win\bin\flac.exe (User Defined Encoder)
192 kBit/s
Additional command line options : -V -8 -T "artist=%a" -T "title=%t" -T "album=%g" -T "date=%y" -T "tracknumber=%n" -T "genre=%m" %s

Other options :
Fill up missing offset samples with silence : Yes
Delete leading and trailing silent blocks : No
Installed external ASPI interface

Track 1
Filename C:\EAC\D\Lee Morgan - Search For The New Land\ 01 - Search for the New Land.wav

Pre-gap length 0:00:02.00

Peak level 97.9 %
Track quality 100.0 %
Test CRC 9D66960A
Copy CRC 9D66960A
Copy OK

Track 2
Filename C:\EAC\D\Lee Morgan - Search For The New Land\ 02 - The Joker.wav

Pre-gap length 0:00:02.01

Peak level 97.9 %
Track quality 100.0 %
Test CRC DEE5EE30
Copy CRC DEE5EE30
Copy OK

Track 3
Filename C:\EAC\D\Lee Morgan - Search For The New Land\ 03 - Mr. Kenyatta.wav

Pre-gap length 0:00:02.06

Peak level 97.9 %
Track quality 100.0 %
Test CRC EECA485B
Copy CRC EECA485B
Copy OK

Track 4
Filename C:\EAC\D\Lee Morgan - Search For The New Land\ 04 - Melancholee.wav

Pre-gap length 0:00:01.35

Peak level 97.5 %
Track quality 99.9 %
Test CRC AA8D6602
Copy CRC AA8D6602
Copy OK

Track 5
Filename C:\EAC\D\Lee Morgan - Search For The New Land\ 05 - Morgan the Pirate.wav

Pre-gap length 0:00:02.20

Peak level 97.9 %
Track quality 100.0 %
Test CRC F73148AB
Copy CRC F73148AB
Copy OK

No errors occured

End of status report


Трекер:  [ 28-Янв-2012 13:37 ]

  

Скачать .torrent

Размер .torrent файла 12 KB


Размер: 272 MB
Хэш (hash) релиза: 0332d7c99a84d5d55af99046b43feb1446388113

Еще никто не оставлял запись к записи скачать торрент Lee Morgan - Search for the new land - 1964 . Будь первым!

!Обратная связь