Скачать через торрент музыку Lee Morgan - Delightfulee {RVG Edition} - 1966, FLAC бесплатно без регистрации torrent

Если у вас наблюдаются проблемы со скриншотами, переходом по ссылками, скачиванием торрентов - проблемы в блокировщике рекламы AdBlock. #хорошегоДня!


Статистика раздачи
Размер:  467 MB   |    Зарегистрирован:  5 лет 8 месяцев   |    .torrent скачан:  27 раз   |   
Раздают:  1  
   
Загрузка...
 
Автор Сообщение

Umakiro

avatar Umakiro


Lee Morgan - Delightfulee {RVG Edition}

Жанр: Hard Bop
Год выпуска диска: 1966
Производитель диска: USA
Аудио кодек: FLAC
Тип рипа: tracks+.cue
Битрейт аудио: lossless
Продолжительность: 67:35
Лейбл: Blue Note
Источник:

Трэклист:
1 Ca-Lee-So
2 Zambia
3 Yesterday
4 Sunrise, Sunset
5 Nite Flite
6 The Delightful Deggie
7 Need I?
8 Filet of Soul (Aka Hoppin' John)
9 Zambia [Big Band Version]
10 The Delightful Deggie [Big Band Version]

Музыканты:
Lee Morgan, Ernie Royal(3,4,7-10) - trumpet
Tom McIntosh - trombone(3,4,7-10)
Jimmy Buffington - french horn(3,4,7-10)
Don Butterfield - tuba(3,4,7-10)
Phil Woods - alto sax(3,4,7-10)
Joe Henderson(1,2,5,6), Wayne Shorter(3,4,7-10) - tenor sax
Danny Bank - baritone sax, bass clarinet, flute(3,4,7-10)
McCoy Tyner - piano
Bob Cranshaw - bass
Billy Higgins(1,2,5,6), Philly Joe Jones(3,4,7-10) - drums
Oliver Nelson - conductor(3,4,7-10)

Originally recorded on April 8 and May 27, 1966 at the Van Gelder Studio, Englewood Cliffs, New Jersey
Remastered in 2007 by Rudy Van Gelder
 
Exact Audio Copy V0.99 prebeta 5 from 4. May 2009

EAC extraction logfile from 13. December 2009, 11:03

Lee Morgan / Delightfulee

Used drive : TSSTcorpCD/DVDW TS-H552L Adapter: 3 ID: 0

Read mode : SecureUtilize accurate stream : YesDefeat audio cache : YesMake use of C2 pointers : No

Read offset correction : 6Overread into Lead-In and Lead-Out : NoFill up missing offset samples with silence : YesDelete leading and trailing silent blocks : NoNull samples used in CRC calculations : YesUsed interface : Native Win32 interface for Win NT & 2000Gap handling : Appended to previous track

Used output format : User Defined EncoderSelected bitrate : 1024 kBit/sQuality : HighAdd ID3 tag : NoCommand line compressor : C:\Program Files\FLAC\flac.exeAdditional command line options : -6 -V -T "ARTIST=%a" -T "TITLE=%t" -T "ALBUM=%g" -T "DATE=%y" -T "TRACKNUMBER=%n" -T "GENRE=%m" -T "COMMENT=EAC FLAC -6" %s

TOC of the extracted CD

Track | Start | Length | Start sector | End sector --------------------------------------------------------- 1 | 0:00.00 | 5:34.47 | 0 | 25096 2 | 5:34.47 | 6:33.13 | 25097 | 54584 3 | 12:07.60 | 5:49.68 | 54585 | 80827 4 | 17:57.53 | 6:17.66 | 80828 | 109168 5 | 24:15.44 | 7:38.60 | 109169 | 143578 6 | 31:54.29 | 6:38.71 | 143579 | 173499 7 | 38:33.25 | 7:11.49 | 173500 | 205873 8 | 45:44.74 | 8:30.74 | 205874 | 244197 9 | 54:15.73 | 8:01.33 | 244198 | 280305 10 | 62:17.31 | 5:49.65 | 280306 | 306545

Track 1

Filename C:\Lee Morgan - Delightfulee (1966) {2007 Rudy Van Gelder Remaster}\01 - Ca-Lee-So.wav

Pre-gap length 0:00:02.00

Peak level 97.9 % Track quality 100.0 % Test CRC 7721E586 Copy CRC 7721E586 Accurately ripped (confidence 6) [553875D4] Copy OK

Track 2

Filename C:\Lee Morgan - Delightfulee (1966) {2007 Rudy Van Gelder Remaster}\02 - Zambia.wav

Pre-gap length 0:00:03.41

Peak level 97.9 % Track quality 99.9 % Test CRC D6046992 Copy CRC D6046992 Accurately ripped (confidence 6) [AC3DD18F] Copy OK

Track 3

Filename C:\Lee Morgan - Delightfulee (1966) {2007 Rudy Van Gelder Remaster}\03 - Yesterday.wav

Pre-gap length 0:00:03.06

Peak level 97.9 % Track quality 100.0 % Test CRC 9A41392E Copy CRC 9A41392E Accurately ripped (confidence 6) [8D65A968] Copy OK

Track 4

Filename C:\Lee Morgan - Delightfulee (1966) {2007 Rudy Van Gelder Remaster}\04 - Sunrise, Sunset.wav

Pre-gap length 0:00:04.14

Peak level 97.9 % Track quality 99.9 % Test CRC 61FCAD80 Copy CRC 61FCAD80 Accurately ripped (confidence 6) [11D922B9] Copy OK

Track 5

Filename C:\Lee Morgan - Delightfulee (1966) {2007 Rudy Van Gelder Remaster}\05 - Nite Flite.wav

Pre-gap length 0:00:03.20

Peak level 97.9 % Track quality 100.0 % Test CRC BB971AF2 Copy CRC BB971AF2 Accurately ripped (confidence 6) [D3C99A24] Copy OK

Track 6

Filename C:\Lee Morgan - Delightfulee (1966) {2007 Rudy Van Gelder Remaster}\06 - The Delightful Deggie.wav

Pre-gap length 0:00:02.44

Peak level 97.9 % Track quality 100.0 % Test CRC 726FBB13 Copy CRC 726FBB13 Accurately ripped (confidence 6) [948F3D83] Copy OK

Track 7

Filename C:\Lee Morgan - Delightfulee (1966) {2007 Rudy Van Gelder Remaster}\07 - Need I .wav

Pre-gap length 0:00:04.09

Peak level 97.9 % Track quality 100.0 % Test CRC 8B400680 Copy CRC 8B400680 Accurately ripped (confidence 6) [1A061E0D] Copy OK

Track 8

Filename C:\Lee Morgan - Delightfulee (1966) {2007 Rudy Van Gelder Remaster}\08 - Filet Of Soul (aka Hoppin' John).wav

Pre-gap length 0:00:03.36

Peak level 97.9 % Track quality 100.0 % Test CRC 8B3790D9 Copy CRC 8B3790D9 Accurately ripped (confidence 6) [943FBAB3] Copy OK

Track 9

Filename C:\Lee Morgan - Delightfulee (1966) {2007 Rudy Van Gelder Remaster}\09 - Zambia (Big Band Version).wav

Pre-gap length 0:00:04.09

Peak level 97.9 % Track quality 100.0 % Test CRC B2A3D65D Copy CRC B2A3D65D Accurately ripped (confidence 6) [CF0AFC88] Copy OK

Track 10

Filename C:\Lee Morgan - Delightfulee (1966) {2007 Rudy Van Gelder Remaster}\10 - The Delightful Deggie (Big Band Version).wav

Pre-gap length 0:00:03.13

Peak level 98.0 % Track quality 100.0 % Test CRC 4506579F Copy CRC 4506579F Accurately ripped (confidence 6) [67E8776F] Copy OK

All tracks accurately ripped

No errors occurred

End of status report
 
AUDIOCHECKER v1.2 - by Dester - opdester@freemail.hu~~~~~~~~~~~~~~~~~

01 -===- E:\Up-Down\Lee Morgan - Delightfulee\01 - Ca-Lee-So.flac Extracted successfully Conclusion: This track looks like CDDA with probability 100%

02 -===- E:\Up-Down\Lee Morgan - Delightfulee\02 - Zambia.flac Extracted successfully Conclusion: This track looks like CDDA with probability 100%

03 -===- E:\Up-Down\Lee Morgan - Delightfulee\03 - Yesterday.flac Extracted successfully Conclusion: This track looks like CDDA with probability 100%

04 -===- E:\Up-Down\Lee Morgan - Delightfulee\04 - Sunrise, Sunset.flac Extracted successfully Conclusion: This track looks like CDDA with probability 100%

05 -===- E:\Up-Down\Lee Morgan - Delightfulee\05 - Nite Flite.flac Extracted successfully Conclusion: This track looks like CDDA with probability 100%

06 -===- E:\Up-Down\Lee Morgan - Delightfulee\06 - The Delightful Deggie.flac Extracted successfully Conclusion: This track looks like CDDA with probability 100%

07 -===- E:\Up-Down\Lee Morgan - Delightfulee\07 - Need I .flac Extracted successfully Conclusion: This track looks like CDDA with probability 100%

08 -===- E:\Up-Down\Lee Morgan - Delightfulee\08 - Filet Of Soul (aka Hoppin' John).flac Extracted successfully Conclusion: This track looks like MPEG with probability 95%

09 -===- E:\Up-Down\Lee Morgan - Delightfulee\09 - Zambia (Big Band Version).flac Extracted successfully Conclusion: This track looks like CDDA with probability 100%

10 -===- E:\Up-Down\Lee Morgan - Delightfulee\10 - The Delightful Deggie (Big Band Version).flac Extracted successfully Conclusion: This track looks like CDDA with probability 100%


Трекер:  [ 28-Янв-2012 13:36 ]

  

Скачать .torrent

Размер .torrent файла 19 KB


Размер: 467 MB
Хэш (hash) релиза: dc2eb0af97916c8eae390dc15263ba54792167c1

Еще никто не оставлял запись к записи скачать торрент Lee Morgan - Delightfulee {RVG Edition} - 1966, FLAC . Будь первым!

!Обратная связь