Скачать через торрент музыку Lee Morgan - lee-way {RVG Edition} - 1960, APE бесплатно без регистрации torrent

Если у вас наблюдаются проблемы со скриншотами, переходом по ссылками, скачиванием торрентов - проблемы в блокировщике рекламы AdBlock. #хорошегоДня!


Статистика раздачи
Размер:  242 MB   |    Зарегистрирован:  5 лет 8 месяцев   |    .torrent скачан:  23 раза   |   
Раздают:  1  
   
Загрузка...
 
Автор Сообщение

Umakiro

avatar Umakiro


Lee Morgan - lee-way {RVG Edition}
Страна: USA
Жанр: Jazz/Hard-bop
Лейбл: Blue Note Records
Год выпуска: 1960
Формат: APE (image + .cue)
Битрейт аудио: lossless
Продолжительность: 39:25
Трэклист:
1 These Are Soulful Days
2 The Lion And The Wolff
3 Midtown Blues
4 Nakatini Suite

Lee Morgan: Trumpet
Jackie McLean: Alto Saxophone
Bobby Timmons: Piano
Paul Chambers: Bass
Art Blakey: Drums

Produced by Alfred Lion
Recorded on April 28, 1960 at the Van Gelder Studio, Englewood Cliffs, New Jersey
Originally recorded and remastered in 2002 by Rudy Van Gelder
All transfers from the analog tapes to digital were made at 24-bit resolution
Reissue produced by: Michael Cuscuna
Cover Photograph by: Francis Wolff
Cover Design by: Reid Miles

Доп. информация:
This album is unique within Lee Morgan's vast and rich Blue Note discography. With then current employer Art Blakey, band mate Bobby Timmons on piano, Paul Chambers on bass and Jackie McLean on alto saxophone, the trumpeter abandons time constraints and stretches out on four, soulful, hard-bop compositions (the first and the last are by Cal Massey). These hard bop masters are constantly inspired by Blakey's explosive grooves.
Exact Audio Copy V0.99 prebeta 2 from 28. July 2007

Отчёт EAC об извлечении, выполненном 27. августа 2007, 21:17

Lee Morgan / lee-way

Дисковод: HL-DT-STDVDRAM GSA-4167B Adapter: 0 ID: 0

Режим чтения : Достоверность
Использование точного потока : Да
Отключение кэша аудио : Да
Использование указателей C2 : Нет

Коррекция смещения при чтении : 667
Способность читать области Lead-in и Lead-out : Нет
Заполнение пропущенных сэмплов тишиной : Да
Удаление блоков с тишиной в начале и конце : Нет
При вычислениях CRC использовались нулевые сэмплы : Да
Интерфейс : Установленный внешний ASPI-интерфейс

Выходной формат : Внутренние WAV-операции
Формат сэмплов : 44.100 Гц; 16 бит; стерео

TOC извлечённого CD

Трек | Старт | Длительность | Начальный сектор | Конечный сектор
---------------------------------------------------------------------
1 | 0:00.00 | 9:25.08 | 0 | 42382
2 | 9:25.08 | 9:40.72 | 42383 | 85954
3 | 19:06.05 | 12:09.46 | 85955 | 140675
4 | 31:15.51 | 8:09.72 | 140676 | 177422

Характеристики диапазона извлечения и сообщения об ошибках

Выбранный диапазон

Пиковый уровень 98.3 %
Качество диапазона 99.9 %
CRC копии AD36F57D
Копирование... OK

Ошибок не произошло

Конец отчёта


Трекер:  [ 28-Янв-2012 13:35 ]

  

Скачать .torrent

Размер .torrent файла 20 KB


Размер: 242 MB
Хэш (hash) релиза: d355c19e6448d5703bb717332d038b30f295860c

Еще никто не оставлял запись к записи скачать торрент Lee Morgan - lee-way {RVG Edition} - 1960, APE . Будь первым!

!Обратная связь