Скачать через торрент музыку Lee Morgan - The Sixth Sense {RVG Edition} - 1967, FLAC бесплатно без регистрации torrent

Если у вас наблюдаются проблемы со скриншотами, переходом по ссылками, скачиванием торрентов - проблемы в блокировщике рекламы AdBlock. #хорошегоДня!


Статистика раздачи
Размер:  378 MB   |    Зарегистрирован:  5 лет 8 месяцев   |    .torrent скачан:  25 раз   |   
Раздают:  1  
   
Загрузка...
 
Автор Сообщение

Umakiro

avatar Umakiro


Lee Morgan - The Sixth Sense {RVG Edition}

Жанр: Hard Bop/Modal Music
Год выпуска диска: 1967
Производитель диска: UK
Аудио кодек: FLAC
Тип рипа: image+.cue
Битрейт аудио: lossless
Продолжительность: 56:35
Лейбл: Blue Note
Источник: NoNaMe

Трэклист:
1. The Sixth Sense
2. Short Count
3. Psychedelic
4. Afreaka
5. Anti Climax
6. The Cry Of My People
7. Extemporaneous
8. Mickey's Tune
9. Leebop

Музыканты:
Lee Morgan- trumpet
Jackie McLean - alto sax(1-5)
Frank Mitchell - tenor sax
Cedar Walton(1-6), Harold Mabern(7-9) - piano
Victor Sproles(1-6), Mickey Bass(7-9) - bass
Billy Higgins - drums

Originally recorded on November 10, 1967 & September 13, 1968 at the Van Gelder Studio, Englewood Cliffs, New Jersey
Remastered in 2003 by Rudy Van Gelder
 
Exact Audio Copy V0.99 prebeta 3 from 28. July 2007

Отчёт EAC об извлечении, выполненном 11. июля 2008, 15:18

Lee Morgan / The Sixth Sense

Дисковод: _NEC DVD_RW ND-3540A Adapter: 2 ID: 0

Режим чтения : ДостоверностьИспользование точного потока : ДаОтключение кэша аудио : ДаИспользование указателей C2 : Нет

Коррекция смещения при чтении : 48Способность читать области Lead-in и Lead-out : НетЗаполнение пропущенных сэмплов тишиной : ДаУдаление блоков с тишиной в начале и конце : НетПри вычислениях CRC использовались нулевые сэмплы : ДаИнтерфейс : Установленный внешний ASPI-интерфейс

Выходной формат : Пользовательский кодировщикВыбранный битрейт : 768 kBit/sКачество : ВысокийДобавление ID3-тэга : ДаУтилита сжатия : C:\Program Files\Exact Audio Copy\FLAC\FLAC.EXEДополнительные параметры : -6 -V -T "ARTIST=%a" -T "TITLE=%t" -T "ALBUM=%g" -T "DATE=%y" -T "TRACKNUMBER=%n" -T "GENRE=%m" -T "COMMENT=%e" %s -o %d

TOC извлечённого CD

Трек | Старт | Длительность | Начальный сектор | Конечный сектор --------------------------------------------------------------------- 1 | 0:00.00 | 6:46.12 | 0 | 30461 2 | 6:46.12 | 6:02.63 | 30462 | 57674 3 | 12:49.00 | 6:32.22 | 57675 | 87096 4 | 19:21.22 | 8:05.30 | 87097 | 123501 5 | 27:26.52 | 6:19.53 | 123502 | 151979 6 | 33:46.30 | 5:24.12 | 151980 | 176291 7 | 39:10.42 | 5:09.40 | 176292 | 199506 8 | 44:20.07 | 6:36.68 | 199507 | 229274 9 | 50:57.00 | 5:38.20 | 229275 | 254644

Характеристики диапазона извлечения и сообщения об ошибках

Выбранный диапазон

Имя файла C:\Documents and Settings\Миша\Мои документы\Lee Morgan - The Sixth Sense\Lee Morgan - The Sixth Sense.wav

Пиковый уровень 98.8 % Качество диапазона 100.0 % CRC копии 4FAB5F74 Копирование... OK

Ошибок не произошло

AccurateRip: сводка

Трек 1 нет в базе данныхТрек 2 нет в базе данныхТрек 3 нет в базе данныхТрек 4 нет в базе данныхТрек 5 нет в базе данныхТрек 6 нет в базе данныхТрек 7 нет в базе данныхТрек 8 нет в базе данныхТрек 9 нет в базе данных

Ни одного трека нет в базе AccurateRip

Конец отчёта
 
AUDIOCHECKER v1.2 - by Dester - opdester@freemail.hu~~~~~~~~~~~~~~~~~

1 -===- E:\Up-Down\Lee Morgan - The Sixth Sense\Lee Morgan - The Sixth Sense.flac Extracted successfully Conclusion: This track looks like CDDA with probability 100%


Трекер:  [ 28-Янв-2012 13:34 ]

  

Скачать .torrent

Размер .torrent файла 15 KB


Размер: 378 MB
Хэш (hash) релиза: 95e2f227469c071de3c9a2b67bc154aec6adf0a1

Еще никто не оставлял запись к записи скачать торрент Lee Morgan - The Sixth Sense {RVG Edition} - 1967, FLAC . Будь первым!

!Обратная связь