Скачать через торрент музыку Lee Morgan - Indeed! {RVG Edition} - 1956, FLAC бесплатно без регистрации torrent

Если у вас наблюдаются проблемы со скриншотами, переходом по ссылками, скачиванием торрентов - проблемы в блокировщике рекламы AdBlock. #хорошегоДня!


Статистика раздачи
Размер:  210 MB   |    Зарегистрирован:  5 лет 8 месяцев   |    .torrent скачан:  43 раза   |   
Раздают:  1  
   
Загрузка...
 
Автор Сообщение

Umakiro

avatar Umakiro


Lee Morgan - Indeed! {RVG Edition}

Страна: USA / Blue Note Records
Жанр: Bop/Hard Bop
Год выпуска: 1956
Формат: FLAC (tracks + .cue)
Битрейт аудио: lossless
Продолжительность: 46:20

Трэклист:
1. Roccus
2. Reggie Of Chester
3. Lady, The
4. Little T (AKA the New Message)
5. Gaza Strip
6. Stand By
7. Little T - (Alternate Take, Bonus Track)

Доп. информация:
Personnel:
Lee Morgan (trumpet);
Clarence Sharpe (alto saxophone);
Horace Silver (piano);
Wilbur Ware (bass guitar);
Philly Joe Jones (drums).
 
EAC extraction logfile from 22. August 2009, 23:56 for CDLee Morgan / Indeed!

Used drive : HL-DT-STDVDRAM GH22NS40 Adapter: 2 ID: 0Read mode : Secure with NO C2, accurate stream, disable cacheRead offset correction : 667Overread into Lead-In and Lead-Out : No

Used output format : C:\Program Files (x86)\Exact Audio Copy\Flac\flac.exe (User Defined Encoder) 128 kBit/s Additional command line options : -8 -V -T "ARTIST=%a" -T "TITLE=%t" -T "ALBUM=%g" -T "DATE=%y" -T "TRACKNUMBER=%n" -T "GENRE=%m" -T "COMMENT=EAC FLAC -8" %s

Other options : Fill up missing offset samples with silence : Yes Delete leading and trailing silent blocks : No Native Win32 interface for Win NT & 2000

Track 1 Filename H:\Jazz Music\ONLY JAZZ\Lee Morgan\Lee Morgan - Indeed! - 1956 {RVG Edition}\01. Roccus.wav

Pre-gap length 0:00:02.00

Peak level 92.7 % Track quality 100.0 % Test CRC 771032DE Copy CRC 771032DE Copy OK

Track 2 Filename H:\Jazz Music\ONLY JAZZ\Lee Morgan\Lee Morgan - Indeed! - 1956 {RVG Edition}\02. Reggie Of Chester.wav

Pre-gap length 0:00:03.14

Peak level 92.2 % Track quality 100.0 % Test CRC 61997055 Copy CRC 61997055 Copy OK

Track 3 Filename H:\Jazz Music\ONLY JAZZ\Lee Morgan\Lee Morgan - Indeed! - 1956 {RVG Edition}\03. The Lady.wav

Pre-gap length 0:00:03.37

Peak level 85.3 % Track quality 100.0 % Test CRC E11C28CD Copy CRC E11C28CD Copy OK

Track 4 Filename H:\Jazz Music\ONLY JAZZ\Lee Morgan\Lee Morgan - Indeed! - 1956 {RVG Edition}\04. Little T (aka The New Message).wav

Pre-gap length 0:00:03.62

Peak level 94.4 % Track quality 100.0 % Test CRC 447C1E88 Copy CRC 447C1E88 Copy OK

Track 5 Filename H:\Jazz Music\ONLY JAZZ\Lee Morgan\Lee Morgan - Indeed! - 1956 {RVG Edition}\05. Gaza Strip.wav

Pre-gap length 0:00:03.17

Peak level 94.2 % Track quality 99.9 % Test CRC 79172E66 Copy CRC 79172E66 Copy OK

Track 6 Filename H:\Jazz Music\ONLY JAZZ\Lee Morgan\Lee Morgan - Indeed! - 1956 {RVG Edition}\06. Stand By.wav

Pre-gap length 0:00:03.88

Peak level 85.1 % Track quality 100.0 % Test CRC B7B77F47 Copy CRC B7B77F47 Copy OK

Track 7 Filename H:\Jazz Music\ONLY JAZZ\Lee Morgan\Lee Morgan - Indeed! - 1956 {RVG Edition}\07. Little T (Alternate Take).wav

Pre-gap length 0:00:03.00

Peak level 93.1 % Track quality 100.0 % Test CRC 34754F04 Copy CRC 34754F04 Copy OK

No errors occured

End of status report
 
REM GENRE JazzREM DATE 1956REM DISCID 520ADC07REM COMMENT "ExactAudioCopy v0.95b3"PERFORMER "Lee Morgan"TITLE "Indeed!"FILE "01. Roccus.wav" WAVE TRACK 01 AUDIO TITLE "Roccus" PERFORMER "Lee Morgan" INDEX 01 00:00:00 TRACK 02 AUDIO TITLE "Reggie Of Chester" PERFORMER "Lee Morgan" INDEX 00 08:15:38FILE "02. Reggie Of Chester.wav" WAVE INDEX 01 00:00:00 TRACK 03 AUDIO TITLE "The Lady" PERFORMER "Lee Morgan" INDEX 00 04:51:70FILE "03. The Lady.wav" WAVE INDEX 01 00:00:00 TRACK 04 AUDIO TITLE "Little T (aka The New Message)" PERFORMER "Lee Morgan" INDEX 00 06:44:02FILE "04. Little T (aka The New Message).wav" WAVE INDEX 01 00:00:00 TRACK 05 AUDIO TITLE "Gaza Strip" PERFORMER "Lee Morgan" INDEX 00 08:20:11FILE "05. Gaza Strip.wav" WAVE INDEX 01 00:00:00 TRACK 06 AUDIO TITLE "Stand By" PERFORMER "Lee Morgan" INDEX 00 03:52:64FILE "06. Stand By.wav" WAVE INDEX 01 00:00:00 TRACK 07 AUDIO TITLE "Little T (Alternate Take)" PERFORMER "Lee Morgan" INDEX 00 05:48:00FILE "07. Little T (Alternate Take).wav" WAVE INDEX 01 00:00:00


Трекер:  [ 28-Янв-2012 13:32 ]

  

Скачать .torrent

Размер .torrent файла 18 KB


Размер: 210 MB
Хэш (hash) релиза: 3e650113356872ad838dca910ab8f9882b67ec72

Еще никто не оставлял запись к записи скачать торрент Lee Morgan - Indeed! {RVG Edition} - 1956, FLAC . Будь первым!

!Обратная связь