Скачать через торрент музыку Lee Morgan - The Gigolo - 1965, FLAC бесплатно без регистрации torrent

Если у вас наблюдаются проблемы со скриншотами, переходом по ссылками, скачиванием торрентов - проблемы в блокировщике рекламы AdBlock. #хорошегоДня!


Статистика раздачи
Размер:  331 MB   |    Зарегистрирован:  5 лет 8 месяцев   |    .torrent скачан:  30 раз   |   
Раздают:  1  
   
Загрузка...
 
Автор Сообщение

Umakiro

avatar Umakiro


Lee Morgan - The Gigolo

Жанр: Jazz, Hard Bop
Год выпуска диска: 1965
Производитель диска: EU
Аудио кодек: FLAC
Тип рипа: image+.cue
Битрейт аудио: lossless
Продолжительность: 47:32

Трэклист:
01. Yes I Can, No You Can't
02. Trapped
03. Speedball
04. The Gigolo
05. You Go To My Head*
06. The Gigolo (Alternate Take)*
*Bonus Tracks, Not Part Of Original LP

The Band:
Lee Morgan: trumpet
wayne Shorter: tenor sax
Harold Mabern.Jr.: piano
Bob Cranshaw: bass
Billy Higgins: drums
Exact Audio Copy V0.99 prebeta 4 from 23. January 2008

Отчёт EAC об извлечении, выполненном 13. января 2009, 21:47

Lee Morgan / The Gigolo

Дисковод: PIONEER DVD-RW DVR-111D Adapter: 0 ID: 0

Режим чтения : Достоверность
Использование точного потока : Да
Отключение кэша аудио : Да
Использование указателей C2 : Нет

Коррекция смещения при чтении : 48
Способность читать области Lead-in и Lead-out : Нет
Заполнение пропущенных сэмплов тишиной : Да
Удаление блоков с тишиной в начале и конце : Нет
При вычислениях CRC использовались нулевые сэмплы : Да
Интерфейс : Встроенный Win32-интерфейс для Win NT/2000

Выходной формат : Пользовательский кодировщик
Выбранный битрейт : 768 kBit/s
Качество : Высокий
Добавление ID3-тэга : Нет
Утилита сжатия : C:\Program Files\Exact Audio Copy\FLAC\FLAC.EXE
Дополнительные параметры : -6 -V -T "ARTIST=%a" -T "TITLE=%t" -T "ALBUM=%g" -T "DATE=%y" -T "TRACKNUMBER=%n" -T "GENRE=%m" -T "COMMENT=%e" %s -o %d

TOC извлечённого CD

Трек | Старт | Длительность | Начальный сектор | Конечный сектор
---------------------------------------------------------------------
1 | 0:00.00 | 7:26.34 | 0 | 33483
2 | 7:26.34 | 5:59.71 | 33484 | 60479
3 | 13:26.30 | 5:32.28 | 60480 | 85407
4 | 18:58.58 | 11:07.51 | 85408 | 135483
5 | 30:06.34 | 7:22.26 | 135484 | 168659
6 | 37:28.60 | 10:04.11 | 168660 | 213970
7 | 50:04.71 | 23:53.04 | 225371 | 332849

Характеристики диапазона извлечения и сообщения об ошибках

Выбранный диапазон

Имя файла F:\U-TORRENT\Lee Morgan - The Gigolo\Lee Morgan - The Gigolo.wav

Пиковый уровень 97.9 %
Качество диапазона 100.0 %
CRC копии 34AA50F1
Копирование... OK

Ошибок не произошло

AccurateRip: сводка

Трек 1 точное извлечение (доверие 1) [9C2E17C5]
Трек 2 точное извлечение (доверие 1) [47AA8D79]
Трек 3 точное извлечение (доверие 1) [A62A4118]
Трек 4 точное извлечение (доверие 1) [8F6BC06A]
Трек 5 точное извлечение (доверие 1) [27B73E04]
Трек 6 точное извлечение (доверие 1) [E996C1A1]

Все треки извлечены точно

Конец отчёта


Трекер:  [ 28-Янв-2012 13:31 ]

  

Скачать .torrent

Размер .torrent файла 13 KB


Размер: 331 MB
Хэш (hash) релиза: 534c9f3ceb854fac93f8b9500b0f3b6c213f675a

Еще никто не оставлял запись к записи скачать торрент Lee Morgan - The Gigolo - 1965, FLAC . Будь первым!

!Обратная связь