Скачать через торрент музыку Lee Morgan - City Lights {RVG Edition} - 1957, FLAC бесплатно без регистрации torrent

Если у вас наблюдаются проблемы со скриншотами, переходом по ссылками, скачиванием торрентов - проблемы в блокировщике рекламы AdBlock. #хорошегоДня!


Статистика раздачи
Размер:  293 MB   |    Зарегистрирован:  5 лет 8 месяцев   |    .torrent скачан:  31 раз   |   
Раздают:  1  
   
Загрузка...
 
Автор Сообщение

Umakiro

avatar Umakiro


Lee Morgan - City Lights {RVG Edition}

Жанр: Jazz, Hard Bop
Год выпуска диска: 1957
Производитель диска: USA
Аудио кодек: FLAC
Тип рипа: image+.cue
Битрейт аудио: lossless
Продолжительность: 37:22
Лейбл: Blue Note

Трэклист:
1 City Lights
2 Tempo de Waltz
3 You're Mine You
4 Just by Myself
5 Kin Folks

Музыканты:
Lee Morgan, trumpet
Curtis Fuller, trombone
George Coleman, alto & tenor sax
Ray Bryant, piano
Paul Chambers, bass
Art Taylor, drums
Exact Audio Copy V0.99 prebeta 4 from 23. January 2008

Отчёт EAC об извлечении, выполненном 4. февраля 2009, 19:06

Lee Morgan / City Lights

Дисковод: _NEC NR-7900A Adapter: 3 ID: 1

Режим чтения : Достоверность
Использование точного потока : Да
Отключение кэша аудио : Да
Использование указателей C2 : Нет

Коррекция смещения при чтении : 685
Способность читать области Lead-in и Lead-out : Нет
Заполнение пропущенных сэмплов тишиной : Да
Удаление блоков с тишиной в начале и конце : Нет
При вычислениях CRC использовались нулевые сэмплы : Да
Интерфейс : Установленный внешний ASPI-интерфейс

Выходной формат : Пользовательский кодировщик
Выбранный битрейт : 768 kBit/s
Качество : Высокий
Добавление ID3-тэга : Нет
Утилита сжатия : C:\Program Files\Exact Audio Copy\FLAC\FLAC.EXE
Дополнительные параметры : -6 -V -T "ARTIST=%a" -T "TITLE=%t" -T "ALBUM=%g" -T "DATE=%y" -T "TRACKNUMBER=%n" -T "GENRE=%m" -T "COMMENT=%e" %s -o %d

TOC извлечённого CD

Трек | Старт | Длительность | Начальный сектор | Конечный сектор
---------------------------------------------------------------------
1 | 0:00.00 | 5:46.10 | 0 | 25959
2 | 5:46.10 | 6:24.40 | 25960 | 54799
3 | 12:10.50 | 6:02.45 | 54800 | 81994
4 | 18:13.20 | 9:25.41 | 81995 | 124410
5 | 27:38.61 | 9:44.08 | 124411 | 168218

Характеристики диапазона извлечения и сообщения об ошибках

Выбранный диапазон

Имя файла D:\My Music\ext\Архивы\Lee Morgan - City Lights\Lee Morgan - City Lights.wav

Пиковый уровень 97.9 %
Качество диапазона 99.9 %
CRC копии 5D3AD611
Копирование... OK

Ошибок не произошло

Конец отчёта
Доп. информация: Originally recorded on August 25, 1957 at the Van Gelder Studio, Englewood Cliffs, New Jersey
Remastered in 2006 by Rudy Van Gelder

Трекер:  [ 28-Янв-2012 13:31 ]

  

Скачать .torrent

Размер .torrent файла 12 KB


Размер: 293 MB
Хэш (hash) релиза: 9ac54779a87bd419b340e0faa6e9a130102c5667

Еще никто не оставлял запись к записи скачать торрент Lee Morgan - City Lights {RVG Edition} - 1957, FLAC . Будь первым!

!Обратная связь