Скачать через торрент музыку Kenny Dorham - Una Mas {RVG Edition} - 1963, APE бесплатно без регистрации torrent

Если у вас наблюдаются проблемы со скриншотами, переходом по ссылками, скачиванием торрентов - проблемы в блокировщике рекламы AdBlock. #хорошегоДня!


Статистика раздачи
Размер:  187 MB   |    Зарегистрирован:  5 лет 8 месяцев   |    .torrent скачан:  24 раза   |   
Раздают:  1  
   
Загрузка...
 
Автор Сообщение

Umakiro

avatar Umakiro


Kenny Dorham - Una Mas {RVG Edition}

Жанр: Hard Bop
Год выпуска диска: 1963
Производитель диска: UK
Аудио кодек: APE
Тип рипа: image+.cue
Битрейт аудио: lossless
Продолжительность: 36:46
Лейбл: Blue Note

Трэклист:
1 Una Mas (One More Time)
2 Straight Ahead
3 Sao Paolo
4 If Ever I Would Leave You

Музыканты:
Kenny Dorham, trumpet
Joe Henderson, tenor sax
Herbie Hancock, piano
Butch Warren, bass
Tony Williams, drums
Exact Audio Copy V0.99 prebeta 4 from 23. January 2008

Отчёт EAC об извлечении, выполненном 11. апреля 2009, 18:34

Kenny Dorham / Una Mas

Дисковод: Optiarc DVD RW AD-7200A Adapter: 3 ID: 1

Режим чтения : Достоверность
Использование точного потока : Да
Отключение кэша аудио : Да
Использование указателей C2 : Нет

Коррекция смещения при чтении : 48
Способность читать области Lead-in и Lead-out : Нет
Заполнение пропущенных сэмплов тишиной : Да
Удаление блоков с тишиной в начале и конце : Нет
При вычислениях CRC использовались нулевые сэмплы : Да
Интерфейс : Установленный внешний ASPI-интерфейс

Выходной формат : Внутренние WAV-операции
Формат сэмплов : 44.100 Гц; 16 бит; стерео

TOC извлечённого CD

Трек | Старт | Длительность | Начальный сектор | Конечный сектор
---------------------------------------------------------------------
1 | 0:00.00 | 15:19.68 | 0 | 68992
2 | 15:19.68 | 8:58.73 | 68993 | 109415
3 | 24:18.66 | 7:20.16 | 109416 | 142431
4 | 31:39.07 | 5:07.20 | 142432 | 165476

Характеристики диапазона извлечения и сообщения об ошибках

Выбранный диапазон

Имя файла E:\Up-Down\Kenny Dorham - Una Mas\Kenny Dorham - Una Mas.wav

Пиковый уровень 97.9 %
Качество диапазона 100.0 %
CRC копии 63BFA702
Копирование... OK

Ошибок не произошло

Конец отчёта
Доп. информация:
Originally recorded on April 1, 1963 at the Van Gelder Studio, Englewood Cliffs, New Jersey
Remastered in 1999 by Rudy Van Gelder

Трекер:  [ 28-Янв-2012 13:28 ]

  

Скачать .torrent

Размер .torrent файла 15 KB


Размер: 187 MB
Хэш (hash) релиза: 0bf306efed470326bd98867a2d676ac8616e3b43

Еще никто не оставлял запись к записи скачать торрент Kenny Dorham - Una Mas {RVG Edition} - 1963, APE . Будь первым!

!Обратная связь