Скачать через торрент музыку Kenny Dorham - Afro-Cuban {RVG Edition} - 1955, FLAC бесплатно без регистрации torrent

Если у вас наблюдаются проблемы со скриншотами, переходом по ссылками, скачиванием торрентов - проблемы в блокировщике рекламы AdBlock. #хорошегоДня!


Статистика раздачи
Размер:  266 MB   |    Зарегистрирован:  5 лет 8 месяцев   |    .torrent скачан:  30 раз   |   
Раздают:  1  
   
Загрузка...
 
Автор Сообщение

Umakiro

avatar Umakiro


Kenny Dorham - Afro Cuban {RVG Edition}

Жанр: Hard Bop/Afro-Cuban Jazz
Год выпуска диска: 1955
Производитель диска: USA
Аудио кодек: FLAC
Тип рипа: image+.cue
Битрейт аудио: lossless
Продолжительность: 45:44
Лейбл: Blue Note
Источник: NoNaMe

Трэклист:
1 Afrodisia
2 Lotus Flower
3 Minor's Holiday
4 Basheer's Dream
5 K.D's Motion
6 La Villa
7 Venita's Dance
8 Echo of spring [aka K.D.'s Cab Ride]
9 Minor's Holiday [alternate take]

Музыканты:
Kenny Dorham - trumpet
J.J. Johnson - trombone
Hank Mobley - tenor sax
Cecil Payne - baritone sax
Horace Silver - piano
Oscar Pettiford(1-4,9), Percy Heath(5-8) - bass
Art Blakey - drums
Carlos Valdes - congas
Richie Goldberg - cowbell

Originally recorded on January 30 & March 29, 1955 at the Van Gelder Studio, Englewood Cliffs, New Jersey
Remastered in 2007 by Rudy Van Gelder
 
Exact Audio Copy V0.99 prebeta 3 from 28. July 2007

Отчёт EAC об извлечении, выполненном 29. июня 2009, 16:02

Kenny Dorham / Afro-Cuban

Дисковод: HL-DT-STDVD-RAM GSA-H55N Adapter: 0 ID: 0

Режим чтения : ДостоверностьИспользование точного потока : ДаОтключение кэша аудио : ДаИспользование указателей C2 : Нет

Коррекция смещения при чтении : 102Способность читать области Lead-in и Lead-out : НетЗаполнение пропущенных сэмплов тишиной : ДаУдаление блоков с тишиной в начале и конце : НетПри вычислениях CRC использовались нулевые сэмплы : НетИнтерфейс : Установленный внешний ASPI-интерфейс

Выходной формат : Пользовательский кодировщикВыбранный битрейт : 768 kBit/sКачество : ВысокийДобавление ID3-тэга : НетУтилита сжатия : C:\Program Files\Exact Audio Copy\FLAC\FLAC.EXEДополнительные параметры : -6 -V -T "ARTIST=%a" -T "TITLE=%t" -T "ALBUM=%g" -T "DATE=%y" -T "TRACKNUMBER=%n" -T "GENRE=%m" -T "COMMENT=%e" %s -o %d

TOC извлечённого CD

Трек | Старт | Длительность | Начальный сектор | Конечный сектор --------------------------------------------------------------------- 1 | 0:00.00 | 5:06.15 | 0 | 22964 2 | 5:06.15 | 4:16.68 | 22965 | 42232 3 | 9:23.08 | 4:27.58 | 42233 | 62315 4 | 13:50.66 | 5:03.01 | 62316 | 85041 5 | 18:53.67 | 5:28.45 | 85042 | 109686 6 | 24:22.37 | 5:23.44 | 109687 | 133955 7 | 29:46.06 | 5:22.30 | 133956 | 158135 8 | 35:08.36 | 6:11.53 | 158136 | 186013 9 | 41:20.14 | 4:24.18 | 186014 | 205831

Характеристики диапазона извлечения и сообщения об ошибках

Выбранный диапазон

Имя файла C:\Users\Миша\Documents\Kenny Dorham - Afro Cuban\Kenny Dorham - Afro-Cuban.wav

Пиковый уровень 97.9 % Качество диапазона 100.0 % CRC копии F95D3335 Копирование... OK

Ошибок не произошло

AccurateRip: сводка

Трек 1 точное извлечение (доверие 13) [A69E397E]Трек 2 точное извлечение (доверие 10) [6282F3A7]Трек 3 точное извлечение (доверие 13) [4D82C489]Трек 4 точное извлечение (доверие 13) [A350C12D]Трек 5 точное извлечение (доверие 13) [AC6D094D]Трек 6 точное извлечение (доверие 13) [52CCC6DA]Трек 7 точное извлечение (доверие 13) [B70CEE97]Трек 8 точное извлечение (доверие 13) [90938D70]Трек 9 точное извлечение (доверие 12) [40FC4C61]

Все треки извлечены точно

Конец отчёта
 
AUDIOCHECKER v1.2 - by Dester - opdester@freemail.hu~~~~~~~~~~~~~~~~~

1 -===- E:\Up-Down\Kenny Dorham - Afro Cuban\Kenny Dorham - Afro-Cuban.flac Extracted successfully Conclusion: This track looks like CDDA with probability 99%


Трекер:  [ 28-Янв-2012 13:27 ]

  

Скачать .torrent

Размер .torrent файла 11 KB


Размер: 266 MB
Хэш (hash) релиза: cd8685aa9e59eab1f96aa2dd1bc92847c07eebec

Еще никто не оставлял запись к записи скачать торрент Kenny Dorham - Afro-Cuban {RVG Edition} - 1955, FLAC . Будь первым!

!Обратная связь