Скачать через торрент музыку Kenny Burrell - Midnight Blue бесплатно без регистрации torrent

Если у вас наблюдаются проблемы со скриншотами, переходом по ссылками, скачиванием торрентов - проблемы в блокировщике рекламы AdBlock. #хорошегоДня!


Статистика раздачи
Размер:  278 MB   |    Зарегистрирован:  5 лет 8 месяцев   |    .torrent скачан:  25 раз   |   
Раздают:  1  
   
Загрузка...
 
Автор Сообщение

Umakiro

avatar Umakiro


Kenny Burrell - Midnight Blue
Жанр: Soul-Jazz
Год выпуска диска: 1999
Производитель диска: Blue Note: RVG Edition (7243 4 95335 2 3)
Аудио кодек: FLAC
Тип рипа: image+.cue
Битрейт аудио: lossless
Продолжительность: 0:44:02
Трэклист:
01. Chitlins Con Carne (5:30)
02. Mule (6:57)
03. Soul Lament (2:44)
04. Midnight Blue (4:02)
05. Wavy Gravy (5:48)
06. Gee Baby, Ain't I Good To You (4:25)
07. Saturday Night Blues (6:16)
08. Kenny's Sound (4:43)
09. K Twist (3:36)

Stanley Turrentine - tenor saxophone
Kenny Burrell - guitar
Major Holley, Jr. - bass
Bill English - drums
Ray Barretto - conga

Recorded on April 21, 1967 at the Van Gelder Studio, Englewwod Cliffs, New Jersey

За рип спасибо crko
 
Exact Audio Copy V0.99 prebeta 4 from 23. January 2008

EAC extraction logfile from 5. May 2009, 17:30

Kenny Burrell / Midnight Blue

Used drive : ASUS CB-5216A Adapter: 1 ID: 1

Read mode : SecureUtilize accurate stream : YesDefeat audio cache : YesMake use of C2 pointers : No

Read offset correction : 6Overread into Lead-In and Lead-Out : YesFill up missing offset samples with silence : YesDelete leading and trailing silent blocks : NoNull samples used in CRC calculations : YesUsed interface : Installed external ASPI interface

Used output format : Internal WAV RoutinesSample format : 44.100 Hz; 16 Bit; Stereo

TOC of the extracted CD

Track | Start | Length | Start sector | End sector --------------------------------------------------------- 1 | 0:00.00 | 5:30.33 | 0 | 24782 2 | 5:30.33 | 6:56.74 | 24783 | 56056 3 | 12:27.32 | 2:43.60 | 56057 | 68341 4 | 15:11.17 | 4:02.26 | 68342 | 86517 5 | 19:13.43 | 5:47.53 | 86518 | 112595 6 | 25:01.21 | 4:25.17 | 112596 | 132487 7 | 29:26.38 | 6:16.33 | 132488 | 160720 8 | 35:42.71 | 4:43.29 | 160721 | 181974 9 | 40:26.25 | 3:35.74 | 181975 | 198173

Range status and errors

Selected range

Filename E:\Kenny Burrell - Midnight Blue.wav

Peak level 97.9 % Range quality 100.0 % Copy CRC C8B2576A Copy OK

No errors occurred

AccurateRip summary

Track 1 cannot be verified as accurate (confidence 31) [0C057345], AccurateRip returned [800A0A75]Track 2 cannot be verified as accurate (confidence 31) [BB660A81], AccurateRip returned [A0AAD079]Track 3 cannot be verified as accurate (confidence 31) [12C95855], AccurateRip returned [55BA382D]Track 4 cannot be verified as accurate (confidence 31) [B6785CD6], AccurateRip returned [09E3826E]Track 5 cannot be verified as accurate (confidence 31) [87F1993F], AccurateRip returned [E329A57F]Track 6 cannot be verified as accurate (confidence 31) [57AE9739], AccurateRip returned [2335C869]Track 7 cannot be verified as accurate (confidence 31) [988306CB], AccurateRip returned [826CCDFB]Track 8 cannot be verified as accurate (confidence 31) [43FF9F8C], AccurateRip returned [AE799DC4]Track 9 cannot be verified as accurate (confidence 31) [0FBF5467], AccurateRip returned [68EFA917]

No tracks could be verified as accurateYou may have a different pressing from the one(s) in the database

End of status report


Трекер:  [ 28-Янв-2012 13:27 ]

  

Скачать .torrent

Размер .torrent файла 12 KB


Размер: 278 MB
Хэш (hash) релиза: b4e9a21f24c7873452dd705da2f07b25cb500448

Еще никто не оставлял запись к записи скачать торрент Kenny Burrell - Midnight Blue . Будь первым!

!Обратная связь