Скачать через торрент музыку Joe Henderson - Our Thing {RVG Edition} - 1963, FLAC бесплатно без регистрации torrent

Если у вас наблюдаются проблемы со скриншотами, переходом по ссылками, скачиванием торрентов - проблемы в блокировщике рекламы AdBlock. #хорошегоДня!


Статистика раздачи
Размер:  279 MB   |    Зарегистрирован:  5 лет 8 месяцев   |    .torrent скачан:  25 раз   |   
Раздают:  1  
   
Загрузка...
 
Автор Сообщение

Umakiro

avatar Umakiro


Joe Henderson - Our Thing {RVG Edition}

Жанр: Post-Bop/Hard Bop
Год выпуска диска: 1963
Производитель диска: UK
Аудио кодек: FLAC
Тип рипа: image+.cue
Битрейт аудио: lossless
Продолжительность: 45:49
Лейбл: Blue Note
Источник: NoNaMe

Трэклист:
1. Teeter Totter
2. Pedro's Time
3. Our Thing
4. Back Road
5. Escapade
6. Teeter Totter (Alternate Take)

Музыканты:
Kenny Dorham - tumpet
Joe Henderson - tenor sax
Andrew Hill - piano
Eddie Khan - bass
Pete LaRoca drums

Originally recorded on September 9, 1963 at the Van Gelder Studio, Englewood Cliffs, New Jersey
Remastered in 2000 by Rudy Van Gelder
 
Exact Audio Copy V0.99 prebeta 3 from 28. July 2007

Отчёт EAC об извлечении, выполненном 29. июня 2009, 14:02

Joe Henderson / Our Thing

Дисковод: HL-DT-STDVD-RAM GSA-H55N Adapter: 0 ID: 0

Режим чтения : ДостоверностьИспользование точного потока : ДаОтключение кэша аудио : ДаИспользование указателей C2 : Нет

Коррекция смещения при чтении : 102Способность читать области Lead-in и Lead-out : НетЗаполнение пропущенных сэмплов тишиной : ДаУдаление блоков с тишиной в начале и конце : НетПри вычислениях CRC использовались нулевые сэмплы : НетИнтерфейс : Установленный внешний ASPI-интерфейс

Выходной формат : Пользовательский кодировщикВыбранный битрейт : 768 kBit/sКачество : ВысокийДобавление ID3-тэга : НетУтилита сжатия : C:\Program Files\Exact Audio Copy\FLAC\FLAC.EXEДополнительные параметры : -6 -V -T "ARTIST=%a" -T "TITLE=%t" -T "ALBUM=%g" -T "DATE=%y" -T "TRACKNUMBER=%n" -T "GENRE=%m" -T "COMMENT=%e" %s -o %d

TOC извлечённого CD

Трек | Старт | Длительность | Начальный сектор | Конечный сектор --------------------------------------------------------------------- 1 | 0:00.00 | 8:33.00 | 0 | 38474 2 | 8:33.00 | 10:04.63 | 38475 | 83837 3 | 18:37.63 | 5:36.36 | 83838 | 109073 4 | 24:14.24 | 6:19.59 | 109074 | 137557 5 | 30:34.08 | 8:05.24 | 137558 | 173956 6 | 38:39.32 | 7:10.02 | 173957 | 206208

Характеристики диапазона извлечения и сообщения об ошибках

Выбранный диапазон

Имя файла C:\Users\Миша\Documents\Joe Henderson - Our Thing\Joe Henderson - Our Thing.wav

Пиковый уровень 97.9 % Качество диапазона 100.0 % CRC копии 481DE13E Копирование... OK

Ошибок не произошло

AccurateRip: сводка

Трек 1 точное извлечение (доверие 11) [88AFA178]Трек 2 точное извлечение (доверие 11) [3C2393F4]Трек 3 точное извлечение (доверие 11) [7B343953]Трек 4 точное извлечение (доверие 11) [C21C3002]Трек 5 точное извлечение (доверие 11) [13EA72FB]Трек 6 точное извлечение (доверие 10) [0FE5C273]

Все треки извлечены точно

Конец отчёта
 
AUDIOCHECKER v1.2 - by Dester - opdester@freemail.hu~~~~~~~~~~~~~~~~~

1 -===- E:\Up-Down\Joe Henderson - Our Thing\Joe Henderson - Our Thing.flac Extracted successfully Conclusion: This track looks like CDDA with probability 100%


Трекер:  [ 28-Янв-2012 13:25 ]

  

Скачать .torrent

Размер .torrent файла 11 KB


Размер: 279 MB
Хэш (hash) релиза: 1d7023199bc2bd4b1238d397c9b0b0efb461ff0c

Еще никто не оставлял запись к записи скачать торрент Joe Henderson - Our Thing {RVG Edition} - 1963, FLAC . Будь первым!

!Обратная связь