Скачать через торрент музыку John Coltrane - Blue Train бесплатно без регистрации torrent

Если у вас наблюдаются проблемы со скриншотами, переходом по ссылками, скачиванием торрентов - проблемы в блокировщике рекламы AdBlock. #хорошегоДня!


Статистика раздачи
Размер:  389 MB   |    Зарегистрирован:  5 лет 8 месяцев   |    .torrent скачан:  32 раза   |   
Раздают:  1  
   
Загрузка...
 
Автор Сообщение

Umakiro

avatar Umakiro


John Coltrane - Blue Train (Stereo)
Жанр: jazz
Стиль: Hard Bop
Год выпуска альбома: 1957
Год выпуска диска: 2008
Производитель диска: USA
Аудио кодек: WAVPack
Тип рипа: iso.wv
Битрейт аудио: lossless
Продолжительность: 60:02
Analogue Productions: CBNJ 81577 SA

Трэклист:
1. Blue Train 10:42
2. Moment's Notice 9:09
3. Locomation 7:14
4. I'm Old Fashioned 7:57
5. Lazy Bird 7:08
6. Blue Train (Alternate Take) (Bonus Track) 9:56
7. Lazy Bird (Alternate Take) (Bonus Track) 7:56

Paul Chambers, bass
John Coltrane, sax (tenor)
Kenny Drew, piano
Curtis Fuller, trombone
Philly Joe Jones, drums
Lee Morgan, trumpet
The tenor sax giant had signed with another label when he embarked on this one-off date for Blue Note, an excursion that paid off with an enduring modern jazz masterpiece. Boasting volley after volley of smart soloing and intuitively swinging rhythm work, Blue Train is a joy, from the coolly precise ensemble entry on the opening title piece through the set's balance of elegant hard bop conversations and smooth downshifts into ballads. John Coltrane wrote four originals for the date, all of them now regarded as standards, and assembled a rhythm section including pianist Kenny Drew, Miles Davis's rhythm section of bassist Paul Chambers and drummer Philly Joe Jones, and trumpeter Lee Morgan and trombonist Curtis Fuller, both recent Blue Note recruits. Coltrane's signature sound, now fully developed but still hewing more to familiar blues and chromatic harmonies than his later modalities, is confident and expansive, and his partners respond vividly throughout. --Sam Sutherland
Exact Audio Copy V0.99 prebeta 4 from 23. January 2008

Отчёт EAC об извлечении, выполненном 23. марта 2009, 17:45

John Coltrane / Blue Train

Дисковод: ASUS DRW-1814BLT Adapter: 0 ID: 1

Режим чтения : Достоверность
Использование точного потока : Да
Отключение кэша аудио : Да
Использование указателей C2 : Нет

Коррекция смещения при чтении : 6
Способность читать области Lead-in и Lead-out : Нет
Заполнение пропущенных сэмплов тишиной : Да
Удаление блоков с тишиной в начале и конце : Нет
При вычислениях CRC использовались нулевые сэмплы : Да
Интерфейс : Встроенный Win32-интерфейс для Win NT/2000

Выходной формат : Внутренние WAV-операции
Формат сэмплов : 44.100 Гц; 16 бит; стерео

TOC извлечённого CD

Трек | Старт | Длительность | Начальный сектор | Конечный сектор
---------------------------------------------------------------------
1 | 0:00.00 | 10:42.35 | 0 | 48184
2 | 10:42.35 | 9:09.19 | 48185 | 89378
3 | 19:51.54 | 7:13.55 | 89379 | 121908
4 | 27:05.34 | 7:56.72 | 121909 | 157680
5 | 35:02.31 | 7:07.73 | 157681 | 189778
6 | 42:10.29 | 9:55.50 | 189779 | 234453
7 | 52:06.04 | 7:56.00 | 234454 | 270153

Характеристики диапазона извлечения и сообщения об ошибках

Выбранный диапазон

Имя файла T:\John Coltrane - Blue Train.wav

Пиковый уровень 100.0 %
Качество диапазона 100.0 %
CRC копии E569DAE2
Копирование... OK

Ошибок не произошло

Конец отчёта


Трекер:  [ 28-Янв-2012 13:24 ]

  

Скачать .torrent

Размер .torrent файла 16 KB


Размер: 389 MB
Хэш (hash) релиза: b1e6592288609d5ebe5ab41e465acb0fef9b9d36

Еще никто не оставлял запись к записи скачать торрент John Coltrane - Blue Train . Будь первым!

!Обратная связь