Скачать через торрент музыку Joe Henderson - In n Out - 1987, FLAC бесплатно без регистрации torrent

Если у вас наблюдаются проблемы со скриншотами, переходом по ссылками, скачиванием торрентов - проблемы в блокировщике рекламы AdBlock. #хорошегоДня!


Статистика раздачи
Размер:  244 MB   |    Зарегистрирован:  5 лет 8 месяцев   |    .torrent скачан:  25 раз   |   
Раздают:  1  
   
Загрузка...
 
Автор Сообщение

Umakiro

avatar Umakiro


Joe Henderson - In 'n Out

Жанр: Jazz
Стиль: Hard Bop
Год выпуска диска: 1987
Производитель диска: Blue Note
Аудио кодек: FLAC
Тип рипа: tracks+.cue+full artwork
Битрейт аудио: lossless
Продолжительность: 39:31
Трэклист:

01. In 'n Out (10:26)
02. Punjab (9:11)
03. Serenity (6:18)
04. Short Story (7:12)
05. Brown's Town (6:24)
Exact Audio Copy V0.99 prebeta 4 from 23. January 2008

EAC extraction logfile from 18. October 2009, 8:27

Joe Henderson / In 'n Out

Used drive : HL-DT-STDVDRAM GSA-E10L Adapter: 2 ID: 0

Read mode : Secure
Utilize accurate stream : Yes
Defeat audio cache : Yes
Make use of C2 pointers : No

Read offset correction : 667
Overread into Lead-In and Lead-Out : No
Fill up missing offset samples with silence : Yes
Delete leading and trailing silent blocks : No
Null samples used in CRC calculations : Yes
Used interface : Installed external ASPI interface
Gap handling : Appended to previous track

Used output format : User Defined Encoder
Selected bitrate : 768 kBit/s
Quality : High
Add ID3 tag : No
Command line compressor : C:\Programmi\Exact Audio Copy\FLAC\FLAC.EXE
Additional command line options : -8 -V -T "artist=%a" -T "title=%t" -T "album=%g" -T "date=%y" -T "tracknumber=%n" -T "genre=%m" %s

TOC of the extracted CD

Track | Start | Length | Start sector | End sector
---------------------------------------------------------
1 | 0:00.00 | 10:26.20 | 0 | 46969
2 | 10:26.20 | 9:10.60 | 46970 | 88279
3 | 19:37.05 | 6:17.58 | 88280 | 116612
4 | 25:54.63 | 7:12.32 | 116613 | 149044
5 | 33:07.20 | 6:23.60 | 149045 | 177829

Track 1

Filename C:\EACrip\01 - Joe Henderson - In 'n Out .wav

Pre-gap length 0:00:02.00

Peak level 94.6 %
Track quality 99.9 %
Test CRC 943D4EAA
Copy CRC 943D4EAA
Accurately ripped (confidence 2) [87A28D08]
Copy OK

Track 2

Filename C:\EACrip\02 - Joe Henderson - Punjab .wav

Pre-gap length 0:00:01.89

Peak level 90.2 %
Track quality 100.0 %
Test CRC 61DE3215
Copy CRC 61DE3215
Accurately ripped (confidence 2) [E8797020]
Copy OK

Track 3

Filename C:\EACrip\03 - Joe Henderson - Serenity .wav

Pre-gap length 0:00:02.40

Peak level 88.0 %
Track quality 100.0 %
Test CRC C750C996
Copy CRC C750C996
Accurately ripped (confidence 2) [DA6DFE55]
Copy OK

Track 4

Filename C:\EACrip\04 - Joe Henderson - Short Story .wav

Pre-gap length 0:00:01.60

Peak level 92.6 %
Track quality 100.0 %
Test CRC C290A430
Copy CRC C290A430
Accurately ripped (confidence 2) [3807F270]
Copy OK

Track 5

Filename C:\EACrip\05 - Joe Henderson - Brown's Town .wav

Pre-gap length 0:00:01.80

Peak level 89.4 %
Track quality 100.0 %
Test CRC 59E55A5B
Copy CRC 59E55A5B
Accurately ripped (confidence 2) [70908461]
Copy OK

All tracks accurately ripped

No errors occurred

End of status report
-----------------------

DON'T MODIFY THIS FILE

-----------------------

PERFORMER: auCDtect Task Manager, ver. 1.0.0 Stable build 1.0.0.0
Copyright (c) 2008, 2009 y-soft. All rights reserved
http://y-soft.110mb.com

ANALYZER: auCDtect: CD records authenticity detector, version 0.8.2
Copyright (c) 2004 Oleg Berngardt. All rights reserved.
Copyright (c) 2004 Alexander Djourik. All rights reserved.

FILE: 01 - Joe Henderson - In 'n Out .flac
Size: 69147859 Hash: 5D385253237B7D66E3F2D862C0AB600C Accuracy: -m0
Conclusion: ???
Signature: EA50E6E6FB7AEC5F8D1F4E1417798618B70E9BA2
FILE: 02 - Joe Henderson - Punjab .flac
Size: 57660489 Hash: 419512546C0C940F4EC6610CA40A1B00 Accuracy: -m0
Conclusion: CDDA 100%
Signature: 2F7332BFA33C8558237B62412259B918D03019DF
FILE: 03 - Joe Henderson - Serenity .flac
Size: 37310125 Hash: DC93D93B159301895349B7B830F1530B Accuracy: -m0
Conclusion: CDDA 100%
Signature: 59D685AC6A83D616D91ABE072B04F2AF1C9F1648
FILE: 04 - Joe Henderson - Short Story .flac
Size: 46581950 Hash: B9D06A1F7718C9F68508E4D5BABF8297 Accuracy: -m0
Conclusion: CDDA 94%
Signature: F7C0B0F2EADFD484C1B94E4FCEC880B44814B5C1
FILE: 05 - Joe Henderson - Brown's Town .flac
Size: 38080124 Hash: C47CA8A48D8CA3DB57E9340AFAE4BE28 Accuracy: -m0
Conclusion: CDDA 100%
Signature: 8E0D8BA755CB8B76EBAF4848E9243599CD1227E3


Трекер:  [ 28-Янв-2012 13:23 ]

  

Скачать .torrent

Размер .torrent файла 155 KB


Размер: 244 MB
Хэш (hash) релиза: 044e10282af012f19be1af5cd65682852526c528

Еще никто не оставлял запись к записи скачать торрент Joe Henderson - In n Out - 1987, FLAC . Будь первым!

!Обратная связь