Скачать через торрент музыку Miles Davis - Collections - 2007, FLAC бесплатно без регистрации torrent

Если у вас наблюдаются проблемы со скриншотами, переходом по ссылками, скачиванием торрентов - проблемы в блокировщике рекламы AdBlock. #хорошегоДня!


Статистика раздачи
Размер:  305 MB   |    Зарегистрирован:  5 лет 8 месяцев   |    .torrent скачан:  37 раз   |   
Раздают:  1  
   
Загрузка...
 
Автор Сообщение

Umakiro

avatar Umakiro


Miles Davis / Collections

Жанр: Cool Jazz,Post-Bop
Страна-производитель диска: Россия
Год издания диска: 2007
Издатель (лейбл): Sony-BMG
Номер по каталогу: 88697324012
Страна: USA
Аудиокодек: FLAC (*.flac)
Тип рипа: image+.cue
Битрейт аудио: lossless
Продолжительность: 48:49
Источник (релизер): Рип с личного диска
Наличие сканов в содержимом раздачи: да
Треклист:CD: Miles Davis - Collections

1.So What
2.Some Day My Prince Will Come
3.Time After Time
4.Summertime
5.Eighty-One
6.Bye Bye Blackbird
7.New Rhumba
8.Human Nature
 
Exact Audio Copy V0.99 prebeta 5 from 4. May 2009

Отчёт EAC об извлечении, выполненном 12. июня 2011, 8:36

Miles Davis / Super Hits

Дисковод: SONY DVD RW AW-G170A Adapter: 0 ID: 2

Режим чтения : ДостоверностьИспользование точного потока : ДаОтключение кэша аудио : ДаИспользование указателей C2 : Нет

Коррекция смещения при чтении : 48Способность читать области Lead-in и Lead-out : НетЗаполнение пропущенных сэмплов тишиной : ДаУдаление блоков с тишиной в начале и конце : НетПри вычислениях CRC использовались нулевые сэмплы : ДаИнтерфейс : Встроенный Win32-интерфейс для Win NT/2000

Выходной формат : Внутренние WAV-операцииФормат сэмплов : 44.100 Гц; 16 бит; стерео

TOC извлечённого CD

Трек | Старт | Длительность | Начальный сектор | Конечный сектор --------------------------------------------------------------------- 1 | 0:00.00 | 9:23.65 | 0 | 42289 2 | 9:23.65 | 9:04.67 | 42290 | 83156 3 | 18:28.57 | 3:40.40 | 83157 | 99696 4 | 22:09.22 | 3:20.20 | 99697 | 114716 5 | 25:29.42 | 6:16.35 | 114717 | 142951 6 | 31:46.02 | 7:55.45 | 142952 | 178621 7 | 39:41.47 | 4:37.48 | 178622 | 199444 8 | 44:19.20 | 4:30.50 | 199445 | 219744

Характеристики диапазона извлечения и сообщения об ошибках

Выбранный диапазон

Имя файла D:\dOWNLOADS\audio\Miles Davis.Collections.CD.2007\Miles Davis - Super Hits.wav

Пиковый уровень 99.9 % Качество диапазона 100.0 % CRC теста 1B20DECC CRC копии 1B20DECC Копирование... OK

Ошибок не произошло

AccurateRip: сводка

Трек 1 точное извлечение (доверие 2) [88401516]Трек 2 точное извлечение (доверие 2) [264A896C]Трек 3 точное извлечение (доверие 2) [D1C66EB8]Трек 4 точное извлечение (доверие 2) [475EB85A]Трек 5 точное извлечение (доверие 2) [60A570CB]Трек 6 точное извлечение (доверие 2) [9FD5D2FF]Трек 7 точное извлечение (доверие 2) [B8D5B204]Трек 8 точное извлечение (доверие 2) [DB5D0051]

Все треки извлечены точно

Конец отчёта


Трекер:  [ 28-Янв-2012 12:39 ]

  

Скачать .torrent

Размер .torrent файла 12 KB


Размер: 305 MB
Хэш (hash) релиза: 4eb7f82c264898671d49391a37341f97fcb34c5f

Еще никто не оставлял запись к записи скачать торрент Miles Davis - Collections - 2007, FLAC . Будь первым!

!Обратная связь