Скачать через торрент музыку The Gene Harris Quartet - Listen Here! - 1989, FLAC бесплатно без регистрации torrent

Если у вас наблюдаются проблемы со скриншотами, переходом по ссылками, скачиванием торрентов - проблемы в блокировщике рекламы AdBlock. #хорошегоДня!


Статистика раздачи
Размер:  307 MB   |    Зарегистрирован:  5 лет 8 месяцев   |    .torrent скачан:  34 раза   |   
Раздают:  1  
   
Загрузка...
 
Автор Сообщение

Umakiro

avatar Umakiro


The Gene Harris Quartet - Listen Here!

Жанр: Cool
Год выпуска диска: 1989
Производитель диска: Concord Records, USA
Аудио кодек: FLAC
Тип рипа: image+.cue
Битрейт аудио: lossless
Продолжительность: 53:50

Треклист:
1. This Masquerade (Leon Russell)
2. Don't Be that Way (Benny Goodman, Mitchell Parish, Edgar Sampson)
3. I've Got a Felling I'm Falling (Billy Rose, Harry Link, Thomas "Fats" Waller)
4. Listen Here (Eddie Harris)
5. This Can't Be Love (Richard Rodgers, Lorenz Hart)
6. To You (Thaddeus J. Jones, Budd Johnson)
7. Blues for Jezebel (Gene Harris)
8. Sweet and Lovely (Gus Arnheim, Harry Tobias, Jules Lemare)
9. Lullabye (Chuck Mangione)
10. The Song Is Ended (Irving Berlin)

Personnel:
Gene Harris - piano
Ron Eschete - guitar
Ray Brown - bass
Jeff Hamilton - drums

Доп. информация: Рип диска из собственной коллекции. Коврики прилагаются.
 
Exact Audio Copy V0.99 prebeta 5 from 4. May 2009

Отчёт EAC об извлечении, выполненном 13. августа 2010, 21:11

The Gene Harris Quartet / Listen Here!

Дисковод: PIONEER DVD-RW DVR-112D Adapter: 1 ID: 0

Режим чтения : ДостоверностьИспользование точного потока : ДаОтключение кэша аудио : ДаИспользование указателей C2 : Нет

Коррекция смещения при чтении : 48Способность читать области Lead-in и Lead-out : НетЗаполнение пропущенных сэмплов тишиной : ДаУдаление блоков с тишиной в начале и конце : НетПри вычислениях CRC использовались нулевые сэмплы : ДаИнтерфейс : Встроенный Win32-интерфейс для Win NT/2000

Выходной формат : Пользовательский кодировщикВыбранный битрейт : 128 kBit/sКачество : ВысокийДобавление ID3-тэга : НетУтилита сжатия : C:\Program Files\Exact Audio Copy\Flac\flac.exeДополнительные параметры : -8 -V %s

TOC извлечённого CD

Трек | Старт | Длительность | Начальный сектор | Конечный сектор --------------------------------------------------------------------- 1 | 0:00.00 | 6:25.51 | 0 | 28925 2 | 6:25.51 | 3:55.11 | 28926 | 46561 3 | 10:20.62 | 6:43.23 | 46562 | 76809 4 | 17:04.10 | 5:05.49 | 76810 | 99733 5 | 22:09.59 | 3:53.22 | 99734 | 117230 6 | 26:03.06 | 5:41.22 | 117231 | 142827 7 | 31:44.28 | 5:11.39 | 142828 | 166191 8 | 36:55.67 | 5:59.34 | 166192 | 193150 9 | 42:55.26 | 5:53.20 | 193151 | 219645 10 | 48:48.46 | 5:01.43 | 219646 | 242263

Характеристики диапазона извлечения и сообщения об ошибках

Выбранный диапазон

Имя файла G:\torrents\M.Music\The Gene Harris Quartet - Listen Here\The Gene Harris Quartet - Listen Here!.wav

Пиковый уровень 81.3 % Качество диапазона 100.0 % CRC теста FAF17CAA CRC копии FAF17CAA Копирование... OK

Ошибок не произошло

AccurateRip: сводка

Трек 1 точное извлечение (доверие 7) [B3687CA4]Трек 2 точное извлечение (доверие 7) [50D67422]Трек 3 точное извлечение (доверие 7) [3D609940]Трек 4 точное извлечение (доверие 7) [5235D5F9]Трек 5 точное извлечение (доверие 6) [0BC0D039]Трек 6 точное извлечение (доверие 7) [F4B84786]Трек 7 точное извлечение (доверие 7) [F0B73F9E]Трек 8 точное извлечение (доверие 7) [8C8C9C35]Трек 9 точное извлечение (доверие 7) [65E03E34]Трек 10 точное извлечение (доверие 6) [37161E28]

Все треки извлечены точно

Конец отчёта


Трекер:  [ 28-Янв-2012 12:39 ]

  

Скачать .torrent

Размер .torrent файла 13 KB


Размер: 307 MB
Хэш (hash) релиза: b5b4c7f7380dfbdf8adb08d2ca5f7320593dc5d1

Еще никто не оставлял запись к записи скачать торрент The Gene Harris Quartet - Listen Here! - 1989, FLAC . Будь первым!

!Обратная связь