Скачать через торрент музыку Chet Baker - September Song бесплатно без регистрации torrent

Если у вас наблюдаются проблемы со скриншотами, переходом по ссылками, скачиванием торрентов - проблемы в блокировщике рекламы AdBlock. #хорошегоДня!


Статистика раздачи
Размер:  237 MB   |    Зарегистрирован:  5 лет 8 месяцев   |    .torrent скачан:  33 раза   |   
Раздают:  1  
   
Загрузка...
 
Автор Сообщение

Umakiro

avatar Umakiro


•Chet Baker - September Song (1990)•

Жанр: Cool
Страна-производитель диска: Japan
Год издания диска: 2002
Издатель (лейбл): M&I Company
Номер по каталогу: MYCJ 030063
Аудиокодек: FLAC (*.flac)
Тип рипа: tracks+.cue
Битрейт аудио: lossless
Продолжительность: 00:42:27
Источник (релизер): Рип с диска.
Наличие сканов в содержимом раздачи: да

Треклист:

01. September Song
02. My Funny Valentine
03. I Remember You
04. But Beautiful
05. Barbados
06. September Song
07. Solar


Personnel:

Chet Baker - tp,voc
Duke Jordan - p
Jesper Lundgaard - b
 
Exact Audio Copy V1.0 beta 3 from 29. August 2011

Отчёт EAC об извлечении, выполненном 15. января 2012, 20:49

Chet Baker / September Song

Дисковод: TSSTcorpCDDVDW SH-S223C Adapter: 5 ID: 0

Режим чтения : ДостоверностьИспользование точного потока : ДаОтключение кэша аудио : ДаИспользование указателей C2 : Нет

Коррекция смещения при чтении : 697Способность читать области Lead-in и Lead-out : НетЗаполнение пропущенных сэмплов тишиной : ДаУдаление блоков с тишиной в начале и конце : НетПри вычислениях CRC использовались нулевые сэмплы : ДаИнтерфейс : Установленный внешний ASPI-интерфейсОбработка зазоров : Добавлено к предыдущему треку

Выходной формат : Пользовательский кодировщикВыбранный битрейт : 128 kBit/sКачество : ВысокийДобавление ID3-тега : НетУтилита сжатия : C:\Program Files\Exact Audio Copy\Flac\flac.exeДополнительные параметры : -V -8 -T "Genre=%genre%" -T "Artist=%artist%" -T "Title=%title%" -T "Album=%albumtitle%" -T "Date=%year%" -T "Tracknumber=%tracknr%" -T "Comment=%comment%" %source%

TOC извлечённого CD

Трек | Старт | Длительность | Начальный сектор | Конечный сектор --------------------------------------------------------------------- 1 | 0:00.00 | 8:11.45 | 0 | 36869 2 | 8:11.45 | 6:46.27 | 36870 | 67346 3 | 14:57.72 | 4:25.10 | 67347 | 87231 4 | 19:23.07 | 4:38.70 | 87232 | 108151 5 | 24:02.02 | 11:33.03 | 108152 | 160129 6 | 35:35.05 | 7:41.05 | 160130 | 194709 7 | 43:16.10 | 4:05.72 | 194710 | 213156

Трек 1

Имя файла C:\Шахматы\2002.Chet Baker - September Song\01. September Song.wav

Длина предзазора 0:00:02.00

Пиковый уровень 98.8 % Скорость извлечения 2.2 X Качество трека 100.0 % CRC теста C161A6B3 CRC копии C161A6B3 Точность не определена (достоверность 1) [C223B112], AccurateRip вернул [7A0C0E71] (AR v2) Копирование... OK

Трек 2

Имя файла C:\Шахматы\2002.Chet Baker - September Song\02. My Funny Valentine.wav

Пиковый уровень 98.8 % Скорость извлечения 2.4 X Качество трека 99.9 % CRC теста 0769AC64 CRC копии 0769AC64 Точность не определена (достоверность 1) [4FDD1B2C], AccurateRip вернул [ED024922] (AR v2) Копирование... OK

Трек 3

Имя файла C:\Шахматы\2002.Chet Baker - September Song\03. I Remember You.wav

Пиковый уровень 98.8 % Скорость извлечения 2.8 X Качество трека 100.0 % CRC теста 29D3F877 CRC копии 29D3F877 Точность не определена (достоверность 1) [E36FF2D6], AccurateRip вернул [CA5B2DC0] (AR v2) Копирование... OK

Трек 4

Имя файла C:\Шахматы\2002.Chet Baker - September Song\04. But Beautiful.wav

Пиковый уровень 98.8 % Скорость извлечения 3.0 X Качество трека 100.0 % CRC теста 9FAF4EBF CRC копии 9FAF4EBF Точность не определена (достоверность 1) [0F5340B3], AccurateRip вернул [A1925721] (AR v2) Копирование... OK

Трек 5

Имя файла C:\Шахматы\2002.Chet Baker - September Song\05. Barbados.wav

Пиковый уровень 98.8 % Скорость извлечения 3.5 X Качество трека 100.0 % CRC теста 1D3B8862 CRC копии 1D3B8862 Точность не определена (достоверность 1) [98117E39], AccurateRip вернул [4129006F] (AR v2) Копирование... OK

Трек 6

Имя файла C:\Шахматы\2002.Chet Baker - September Song\06. September Song.wav

Пиковый уровень 98.8 % Скорость извлечения 3.8 X Качество трека 100.0 % CRC теста 72AA51E0 CRC копии 72AA51E0 Точность не определена (достоверность 1) [CB01AFAB], AccurateRip вернул [38C4AA24] (AR v2) Копирование... OK

Трек 7

Имя файла C:\Шахматы\2002.Chet Baker - September Song\07. Solar.wav

Пиковый уровень 91.3 % Скорость извлечения 3.7 X Качество трека 100.0 % CRC теста B73CDEA0 CRC копии B73CDEA0 Точность не определена (достоверность 1) [B6856BDA], AccurateRip вернул [FA5F09DA] (AR v2) Копирование... OK

Ни один трек не прошёл проверки на точностьВ вашей базе может быть иной вариант штамповки диска

Ошибок не произошло

Конец отчёта

==== Контрольная сумма отчёта 85494C36E6C9D15F3E11B788A013779ADFB4A8A370CC778997AB39FDE2185480 ====
 
REM GENRE JazzREM DATE 2002REM DISCID 6B0B1A07REM COMMENT "ExactAudioCopy v1.0b3"PERFORMER "Chet Baker"TITLE "September Song"FILE "01. September Song.wav" WAVE TRACK 01 AUDIO TITLE "September Song" PERFORMER "Chet Baker" INDEX 01 00:00:00FILE "02. My Funny Valentine.wav" WAVE TRACK 02 AUDIO TITLE "My Funny Valentine" PERFORMER "Chet Baker" INDEX 01 00:00:00FILE "03. I Remember You.wav" WAVE TRACK 03 AUDIO TITLE "I Remember You" PERFORMER "Chet Baker" INDEX 01 00:00:00FILE "04. But Beautiful.wav" WAVE TRACK 04 AUDIO TITLE "But Beautiful" PERFORMER "Chet Baker" INDEX 01 00:00:00FILE "05. Barbados.wav" WAVE TRACK 05 AUDIO TITLE "Barbados" PERFORMER "Chet Baker" INDEX 01 00:00:00FILE "06. September Song.wav" WAVE TRACK 06 AUDIO TITLE "September Song" PERFORMER "Chet Baker" INDEX 01 00:00:00FILE "07. Solar.wav" WAVE TRACK 07 AUDIO TITLE "Solar" PERFORMER "Chet Baker" INDEX 01 00:00:00


Трекер:  [ 28-Янв-2012 12:38 ]

  

Скачать .torrent

Размер .torrent файла 19 KB


Размер: 237 MB
Хэш (hash) релиза: 62ef9a8e4ea9a0c22326d5d7bba1a5b9ae95350d

Еще никто не оставлял запись к записи скачать торрент Chet Baker - September Song . Будь первым!

!Обратная связь