Скачать через торрент музыку Chet Baker - Bakers Holiday {1965} - 2004, FLAC бесплатно без регистрации torrent

Если у вас наблюдаются проблемы со скриншотами, переходом по ссылками, скачиванием торрентов - проблемы в блокировщике рекламы AdBlock. #хорошегоДня!


Статистика раздачи
Размер:  175 MB   |    Зарегистрирован:  5 лет 8 месяцев   |    .torrent скачан:  25 раз   |   
Раздают:  1  
   
Загрузка...
 
Автор Сообщение

Umakiro

avatar Umakiro


•Chet Baker - Baker's Holiday {1965}•

Жанр: Cool
Страна-производитель диска: Россия
Год издания диска: 2004
Аудиокодек: FLAC (*.flac)
Тип рипа: image+.cue
Битрейт аудио: lossless
Продолжительность: 00:44:24
Источник (релизер): Рип с диска.
Наличие сканов в содержимом раздачи: да

Треклист:

01. Travelin' Light
02. Easy Living
03. That Ole Devil Called Love
04. You're My Thrill
05. Crazy She Calls Me
06. When Your Lover Has Gone
07. Mean to Me
08. These Foolish Things
09. There Is No Greater Love
10. Don't Explain


Personnel:

Chet Baker - flh
Everett Barksdale - g
Richard Davis - b
Hank Jones - p
Connie Kay - dr
 
Exact Audio Copy V1.0 beta 3 from 29. August 2011

Отчёт EAC об извлечении, выполненном 15. января 2012, 22:35

Chet Baker / Baker's Holiday: Plays & Sings Billie Holiday

Дисковод: TSSTcorpCDDVDW SH-S223C Adapter: 5 ID: 0

Режим чтения : ДостоверностьИспользование точного потока : ДаОтключение кэша аудио : ДаИспользование указателей C2 : Нет

Коррекция смещения при чтении : 697Способность читать области Lead-in и Lead-out : НетЗаполнение пропущенных сэмплов тишиной : ДаУдаление блоков с тишиной в начале и конце : НетПри вычислениях CRC использовались нулевые сэмплы : ДаИнтерфейс : Установленный внешний ASPI-интерфейс

Выходной формат : Пользовательский кодировщикВыбранный битрейт : 128 kBit/sКачество : ВысокийДобавление ID3-тега : НетУтилита сжатия : C:\Program Files\Exact Audio Copy\Flac\flac.exeДополнительные параметры : -V -8 -T "Genre=%genre%" -T "Artist=%artist%" -T "Title=%title%" -T "Album=%albumtitle%" -T "Date=%year%" -T "Tracknumber=%tracknr%" -T "Comment=%comment%" %source%

TOC извлечённого CD

Трек | Старт | Длительность | Начальный сектор | Конечный сектор --------------------------------------------------------------------- 1 | 0:00.32 | 3:11.00 | 32 | 14356 2 | 3:11.32 | 3:24.00 | 14357 | 29656 3 | 6:35.32 | 3:17.00 | 29657 | 44431 4 | 9:52.32 | 3:00.00 | 44432 | 57931 5 | 12:52.32 | 3:23.00 | 57932 | 73156 6 | 16:15.32 | 2:55.00 | 73157 | 86281 7 | 19:10.32 | 3:36.00 | 86282 | 102481 8 | 22:46.32 | 3:31.00 | 102482 | 118306 9 | 26:17.32 | 2:35.38 | 118307 | 129969 10 | 28:52.70 | 3:27.50 | 129970 | 145544

Характеристики диапазона извлечения и сообщения об ошибках

Выбранный диапазон

Имя файла C:\Шахматы\2000.Chet Baker - Baker's Holiday\Chet Baker - Baker's Holiday- Plays & Sings Billie Holiday.wav

Пиковый уровень 97.7 % Скорость извлечения 2.9 X Качество диапазона 100.0 % CRC теста E7BB23D3 CRC копии E7BB23D3 Копирование... OK

Ошибок не произошло

AccurateRip: сводка

Трек 1 отсутствует в базе данныхТрек 2 отсутствует в базе данныхТрек 3 отсутствует в базе данныхТрек 4 отсутствует в базе данныхТрек 5 отсутствует в базе данныхТрек 6 отсутствует в базе данныхТрек 7 отсутствует в базе данныхТрек 8 отсутствует в базе данныхТрек 9 отсутствует в базе данныхТрек 10 отсутствует в базе данных

Ни одного трека нет в базе AccurateRip

Конец отчёта

==== Контрольная сумма отчёта FD0F70AD2AF7B4B6527C58A6A899C9D918FDB5BDFFF39FC52BCA12D6236C1D9D ====
 
REM GENRE "West Coast Jazz"REM DATE 2000REM DISCID 9D07940AREM COMMENT "ExactAudioCopy v1.0b3"CATALOG 0042283820425PERFORMER "Chet Baker"TITLE "Baker's Holiday: Plays & Sings Billie Holiday"FILE "Chet Baker - Baker's Holiday- Plays & Sings Billie Holiday.flac" WAVE TRACK 01 AUDIO TITLE "Travelin' Light" PERFORMER "Chet Baker" INDEX 00 00:00:00 INDEX 01 00:00:32 TRACK 02 AUDIO TITLE "Easy Living" PERFORMER "Chet Baker" INDEX 00 03:09:07 INDEX 01 03:11:32 TRACK 03 AUDIO TITLE "That Ole Devil Called Love" PERFORMER "Chet Baker" INDEX 00 06:31:57 INDEX 01 06:35:32 TRACK 04 AUDIO TITLE "You're My Thrill" PERFORMER "Chet Baker" INDEX 00 09:50:57 INDEX 01 09:52:32 TRACK 05 AUDIO TITLE "Crazy She Calls Me" PERFORMER "Chet Baker" INDEX 00 12:50:70 INDEX 01 12:52:32 TRACK 06 AUDIO TITLE "When Your Lover Has Gone" PERFORMER "Chet Baker" INDEX 00 16:13:20 INDEX 01 16:15:32 TRACK 07 AUDIO TITLE "Mean To Me" PERFORMER "Chet Baker" INDEX 00 19:08:20 INDEX 01 19:10:32 TRACK 08 AUDIO TITLE "These Foolish Things (Remind Me Of You)" PERFORMER "Chet Baker" INDEX 00 22:45:07 INDEX 01 22:46:32 TRACK 09 AUDIO TITLE "There Is No Greater Love" PERFORMER "Chet Baker" INDEX 00 26:15:07 INDEX 01 26:17:32 TRACK 10 AUDIO TITLE "Don't Explain" PERFORMER "Chet Baker" INDEX 00 28:50:32 INDEX 01 28:52:70


Трекер:  [ 28-Янв-2012 12:37 ]

  

Скачать .torrent

Размер .torrent файла 14 KB


Размер: 175 MB
Хэш (hash) релиза: 285b81535bd3d10ca952063f30b55f5e04f2f872

Еще никто не оставлял запись к записи скачать торрент Chet Baker - Bakers Holiday {1965} - 2004, FLAC . Будь первым!

!Обратная связь