Скачать через торрент музыку Jerome Richardson - Going To The Movies - 1962 бесплатно без регистрации torrent

Если у вас наблюдаются проблемы со скриншотами, переходом по ссылками, скачиванием торрентов - проблемы в блокировщике рекламы AdBlock. #хорошегоДня!


Статистика раздачи
Размер:  205 MB   |    Зарегистрирован:  5 лет 8 месяцев   |    .torrent скачан:  29 раз   |   
Раздают:  1  
   
Загрузка...
 
Автор Сообщение

Umakiro

avatar Umakiro


Jerome Richardson - Going To The Movies - 1962 (2011, Japan)

Жанр: Cool, Hard Bop
Страна исполнителя: USA
Год издания оригинала: 1962, Vinyl LP United Artists 14006
Год переиздания: 2011
Страна - производитель диска: Japan
Издатель (лейбл): EMI Music
Номер по каталогу: TOCJ-50129
Тип: Live

Аудио кодек: FLAC (*.flac)
Тип рипа: (tracks + .cue)
Битрейт аудио: lossless
Наличие сканов в содержимом раздачи: full scans, png, 300 dpi
Продолжительность: 29:42
Источник (релизер): коллекция Л Рендера, мой рип

Трэклист:
1. NO PROBLEM (Duke Jordan) 8:42
2. MOON RIVER (J.Mercer-H.Mancini) 4:34
3. NEVER ON SUNDAY (M.Hadjidakis-B.Towne) 4:43
4. TONIGHT (L.Bernstein-S.Sondheim) 3:53
5. DELILAH (Victor Young) 7:39

Состав:
JEROME RICHARDSON baritone, tenor, flute
LES SPAAN guitar, flute
RICHARD WYANDS piano
HENRY GRIMES bass
GRADY TATE drumsAbout performer:
Movie themes, along with songs from Broadway, have long been fodder for jazz musicians. This United Artists LP features Jerome Richardson leading his working quintet during a live engagement, though the venue is unidentified. The extended workout of Duke Jordan's "No Problem" (from the film Les Liaisons Dangereuses) showcases Richardson's robust baritone sax and Les Spann on flute, with the leader adding a tag at the end on piccolo. Richardson switches to tenor sax and Spann to guitar for a rather brisk arrangement of "Moon River." "Tonight" (from West Side Story) is a bit unusual in that it features both musicians on flute. The potent rhythm section includes pianist Richard Wyands, bassist Henry Grimes, and drummer Grady Tate. Richardson's recordings as a leader after the early '60s were rather sporadic, but this early effort gives a strong indication of his potential. Long out of print, this LP will be difficult to acquire.
 
REM GENRE ShowtunesREM DATE 1962REM DISCID 3606F605REM COMMENT "ExactAudioCopy v1.0b2"PERFORMER "Jerome Richardson"TITLE "Going To The Movies"FILE "01 - No Problem.wav" WAVE TRACK 01 AUDIO TITLE "No Problem" PERFORMER "Jerome Richardson" ISRC USBN24900358 INDEX 01 00:00:00 TRACK 02 AUDIO TITLE "Moon River" PERFORMER "Jerome Richardson" ISRC USBN21100046 INDEX 00 08:42:27FILE "02 - Moon River.wav" WAVE INDEX 01 00:00:00 TRACK 03 AUDIO TITLE "Never On Sunday" PERFORMER "Jerome Richardson" ISRC USBN20800116 INDEX 00 04:34:71FILE "03 - Never On Sunday.wav" WAVE INDEX 01 00:00:00 TRACK 04 AUDIO TITLE "Tonight" PERFORMER "Jerome Richardson" ISRC USBN21100047 INDEX 00 04:43:16FILE "04 - Tonight.wav" WAVE INDEX 01 00:00:00 TRACK 05 AUDIO TITLE "Delilah" PERFORMER "Jerome Richardson" ISRC USBN21100048 INDEX 00 03:53:25FILE "05 - Delilah.wav" WAVE INDEX 01 00:00:00
 
Exact Audio Copy V1.0 beta 2 from 29. April 2011

EAC extraction logfile from 18. December 2011, 16:39

Jerome Richardson / Going To The Movies

Used drive : HL-DT-STDVD-RAM GH22NP20 Adapter: 0 ID: 0

Read mode : SecureUtilize accurate stream : YesDefeat audio cache : YesMake use of C2 pointers : No

Read offset correction : 102Overread into Lead-In and Lead-Out : NoFill up missing offset samples with silence : YesDelete leading and trailing silent blocks : NoNull samples used in CRC calculations : YesUsed interface : Native Win32 interface for Win NT & 2000Gap handling : Appended to previous track

Used output format : User Defined EncoderSelected bitrate : 1024 kBit/sQuality : HighAdd ID3 tag : NoCommand line compressor : C:\Program Files\Exact Audio Copy\Flac\flac.exeAdditional command line options : -8 -V -T "ARTIST=%artist%" -T "TITLE=%title%" -T "ALBUM=%albumtitle%" -T "DATE=%year%" -T "TRACKNUMBER=%tracknr%" -T "GENRE=%genre%" -T "PERFORMER=%albuminterpret%" -T "COMMENT=EAC V1.0 beta 2, Secure Mode, Test & Copy, Acc

TOC of the extracted CD

Track | Start | Length | Start sector | End sector --------------------------------------------------------- 1 | 0:00.00 | 8:44.45 | 0 | 39344 2 | 8:44.45 | 4:37.14 | 39345 | 60133 3 | 13:21.59 | 4:45.34 | 60134 | 81542 4 | 18:07.18 | 3:55.43 | 81543 | 99210 5 | 22:02.61 | 7:39.49 | 99211 | 133684

Track 1

Filename D:\music\Musicgate's rips\Jerome Richardson - Going To The Movies - 1962 (2011, Japan)\01 - No Problem.wav

Pre-gap length 0:00:02.00

Peak level 100.0 % Extraction speed 1.8 X Track quality 100.0 % Test CRC 702B6D68 Copy CRC 702B6D68 Track not present in AccurateRip database Copy OK

Track 2

Filename D:\music\Musicgate's rips\Jerome Richardson - Going To The Movies - 1962 (2011, Japan)\02 - Moon River.wav

Pre-gap length 0:00:02.24

Peak level 100.0 % Extraction speed 1.8 X Track quality 99.9 % Test CRC 395C389E Copy CRC 395C389E Track not present in AccurateRip database Copy OK

Track 3

Filename D:\music\Musicgate's rips\Jerome Richardson - Going To The Movies - 1962 (2011, Japan)\03 - Never On Sunday.wav

Pre-gap length 0:00:02.24

Peak level 100.0 % Extraction speed 2.2 X Track quality 100.0 % Test CRC 08614610 Copy CRC 08614610 Track not present in AccurateRip database Copy OK

Track 4

Filename D:\music\Musicgate's rips\Jerome Richardson - Going To The Movies - 1962 (2011, Japan)\04 - Tonight.wav

Pre-gap length 0:00:02.24

Peak level 98.1 % Extraction speed 2.3 X Track quality 100.0 % Test CRC 5EB50ACF Copy CRC 5EB50ACF Track not present in AccurateRip database Copy OK

Track 5

Filename D:\music\Musicgate's rips\Jerome Richardson - Going To The Movies - 1962 (2011, Japan)\05 - Delilah.wav

Pre-gap length 0:00:02.24

Peak level 98.4 % Extraction speed 2.6 X Track quality 100.0 % Test CRC BA160E1E Copy CRC BA160E1E Track not present in AccurateRip database Copy OK

None of the tracks are present in the AccurateRip database

No errors occurred

End of status report

==== Log checksum CC255B4AAFD84BF408691B5FB980A15812763D48DED28808E5DD49A6B37FF36F ====


Трекер:  [ 28-Янв-2012 12:37 ]

  

Скачать .torrent

Размер .torrent файла 17 KB


Размер: 205 MB
Хэш (hash) релиза: 70fb4a065e4a0c8b703be335ad5840a30967a11d

Еще никто не оставлял запись к записи скачать торрент Jerome Richardson - Going To The Movies - 1962 . Будь первым!

!Обратная связь