Скачать через торрент музыку Chris Connor - Chris Craft - 1994, FLAC бесплатно без регистрации torrent

Если у вас наблюдаются проблемы со скриншотами, переходом по ссылками, скачиванием торрентов - проблемы в блокировщике рекламы AdBlock. #хорошегоДня!


Статистика раздачи
Размер:  236 MB   |    Зарегистрирован:  5 лет 8 месяцев   |    .torrent скачан:  43 раза   |   
Раздают:  1  
   
Загрузка...
 
Автор Сообщение

Umakiro

avatar Umakiro


Chris Connor - Chris Craft

Жанр: Cool, Vocal Jazz
Страна-производитель диска: EU
Год издания диска: 1994
Издатель (лейбл): Atlantic
Номер по каталогу: 8122765942
Страна: US Kansas City, MO
Аудиокодек: FLAC (*.flac)
Тип рипа: tracks+.cue
Битрейт аудио: lossless
Продолжительность: 01:16:49
Источник (релизер): mishka1981
Наличие сканов в содержимом раздачи: да
Треклист:
01. Moonlight In Vermont [03:15]
02. Blow, Gabriel, Blow [02:13]
03. Here Lies Love [03:39]
04. Be A Clown [03:02]
05. Good For Nothin' (But Love) [03:54]
06. On The First Warm Day [02:42]
07. Chinatown My Chinatown [02:09]
08. One Love Affair [02:42]
09. The Night We Called It A Day [03:23]
10. Johnny One Note [02:00]
11. Lover Man [03:52]
12. Be My All [04:19]
 
Exact Audio Copy V1.0 beta 1 from 15. November 2010

EAC extraction logfile from 13. August 2011, 14:21

Chris Connor / Chris Craft

Used drive : Optiarc DVD RW AD-7710H Adapter: 1 ID: 0

Read mode : SecureUtilize accurate stream : YesDefeat audio cache : YesMake use of C2 pointers : No

Read offset correction : 48Overread into Lead-In and Lead-Out : NoFill up missing offset samples with silence : YesDelete leading and trailing silent blocks : NoNull samples used in CRC calculations : YesUsed interface : Native Win32 interface for Win NT & 2000Gap handling : Appended to previous track

Used output format : User Defined EncoderSelected bitrate : 896 kBit/sQuality : HighAdd ID3 tag : NoCommand line compressor : C:\Program Files\Exact Audio Copy\FLAC\FLAC.EXEAdditional command line options : -8 -V -T "ARTIST=%a" -T "TITLE=%t" -T "ALBUM=%g" -T "DATE=%y" -T "TRACKNUMBER=%n" -T "GENRE=%m" -T "COMMENT=%e" %j--picture="%i"%j %s -o %d

TOC of the extracted CD

Track | Start | Length | Start sector | End sector --------------------------------------------------------- 1 | 0:00.00 | 3:15.52 | 0 | 14676 2 | 3:15.52 | 2:13.63 | 14677 | 24714 3 | 5:29.40 | 3:39.35 | 24715 | 41174 4 | 9:09.00 | 3:02.12 | 41175 | 54836 5 | 12:11.12 | 3:54.65 | 54837 | 72451 6 | 16:06.02 | 2:42.50 | 72452 | 84651 7 | 18:48.52 | 2:09.18 | 84652 | 94344 8 | 20:57.70 | 2:42.55 | 94345 | 106549 9 | 23:40.50 | 3:23.17 | 106550 | 121791 10 | 27:03.67 | 2:00.25 | 121792 | 130816 11 | 29:04.17 | 3:52.00 | 130817 | 148216 12 | 32:56.17 | 4:19.35 | 148217 | 167676

Track 1

Filename C:\MY RIPS\01 - Moonlight In Vermont.wav

Pre-gap length 0:00:02.00

Peak level 93.3 % Extraction speed 2.6 X Track quality 100.0 % Test CRC D5A82461 Copy CRC D5A82461 Accurately ripped (confidence 1) [65C5BF95] Copy OK

Track 2

Filename C:\MY RIPS\02 - Blow, Gabriel, Blow.wav

Pre-gap length 0:00:01.46

Peak level 100.0 % Extraction speed 2.5 X Track quality 100.0 % Test CRC 94D5A888 Copy CRC 94D5A888 Accurately ripped (confidence 1) [CA52D665] Copy OK

Track 3

Filename C:\MY RIPS\03 - Here Lies Love.wav

Pre-gap length 0:00:01.48

Peak level 93.0 % Extraction speed 2.5 X Track quality 99.9 % Test CRC 8BEB4367 Copy CRC 8BEB4367 Accurately ripped (confidence 1) [82B898AB] Copy OK

Track 4

Filename C:\MY RIPS\04 - Be A Clown.wav

Pre-gap length 0:00:01.48

Peak level 99.2 % Extraction speed 3.1 X Track quality 100.0 % Test CRC 9D7F8BC8 Copy CRC 9D7F8BC8 Accurately ripped (confidence 1) [AF314BD9] Copy OK

Track 5

Filename C:\MY RIPS\05 - Good For Nothin' (But Love).wav

Pre-gap length 0:00:01.47

Peak level 100.0 % Extraction speed 3.5 X Track quality 100.0 % Test CRC D134231A Copy CRC D134231A Accurately ripped (confidence 1) [85C95194] Copy OK

Track 6

Filename C:\MY RIPS\06 - On The First Warm Day.wav

Pre-gap length 0:00:01.47

Peak level 93.3 % Extraction speed 3.5 X Track quality 100.0 % Test CRC 9868D326 Copy CRC 9868D326 Accurately ripped (confidence 1) [F1502FD7] Copy OK

Track 7

Filename C:\MY RIPS\07 - Chinatown My Chinatown.wav

Pre-gap length 0:00:01.47

Peak level 100.0 % Extraction speed 3.4 X Track quality 100.0 % Test CRC D4867722 Copy CRC D4867722 Accurately ripped (confidence 1) [9DB0FB80] Copy OK

Track 8

Filename C:\MY RIPS\08 - One Love Affair.wav

Pre-gap length 0:00:01.48

Peak level 100.0 % Extraction speed 3.7 X Track quality 100.0 % Test CRC 25FA302A Copy CRC 25FA302A Accurately ripped (confidence 1) [84100082] Copy OK

Track 9

Filename C:\MY RIPS\09 - The Night We Called It A Day.wav

Pre-gap length 0:00:01.48

Peak level 91.6 % Extraction speed 3.2 X Track quality 99.9 % Test CRC 8EAD59A1 Copy CRC 8EAD59A1 Accurately ripped (confidence 1) [BD362D7A] Copy OK

Track 10

Filename C:\MY RIPS\10 - Johnny One Note.wav

Pre-gap length 0:00:01.46

Peak level 88.4 % Extraction speed 3.7 X Track quality 100.0 % Test CRC 9728EB61 Copy CRC 9728EB61 Accurately ripped (confidence 1) [50A5BB8C] Copy OK

Track 11

Filename C:\MY RIPS\11 - Lover Man.wav

Pre-gap length 0:00:01.47

Peak level 100.0 % Extraction speed 4.3 X Track quality 100.0 % Test CRC F47BE5D6 Copy CRC F47BE5D6 Accurately ripped (confidence 1) [940F0912] Copy OK

Track 12

Filename C:\MY RIPS\12 - Be My All.wav

Pre-gap length 0:00:01.47

Peak level 100.0 % Extraction speed 4.6 X Track quality 100.0 % Test CRC FEA14D83 Copy CRC FEA14D83 Accurately ripped (confidence 1) [2B9EEF30] Copy OK

All tracks accurately ripped

No errors occurred

End of status report

==== Log checksum 4F8E77B7648BE9608734458CC7D76CFF68975E0141595670383B7A8258540087 ====
 
REM GENRE JazzREM DISCID A108BB0CREM COMMENT "ExactAudioCopy v1.0b1"PERFORMER "Chris Connor"TITLE "Chris Craft"FILE "01 - Moonlight In Vermont.wav" WAVE TRACK 01 AUDIO TITLE "Moonlight In Vermont" PERFORMER "Chris Connor" INDEX 01 00:00:00 TRACK 02 AUDIO TITLE "Blow, Gabriel, Blow" PERFORMER "Chris Connor" INDEX 00 03:14:06FILE "02 - Blow, Gabriel, Blow.wav" WAVE INDEX 01 00:00:00 TRACK 03 AUDIO TITLE "Here Lies Love" PERFORMER "Chris Connor" INDEX 00 02:12:15FILE "03 - Here Lies Love.wav" WAVE INDEX 01 00:00:00 TRACK 04 AUDIO TITLE "Be A Clown" PERFORMER "Chris Connor" INDEX 00 03:37:62FILE "04 - Be A Clown.wav" WAVE INDEX 01 00:00:00 TRACK 05 AUDIO TITLE "Good For Nothin' (But Love)" PERFORMER "Chris Connor" INDEX 00 03:00:40FILE "05 - Good For Nothin' (But Love).wav" WAVE INDEX 01 00:00:00 TRACK 06 AUDIO TITLE "On The First Warm Day" PERFORMER "Chris Connor" INDEX 00 03:53:18FILE "06 - On The First Warm Day.wav" WAVE INDEX 01 00:00:00 TRACK 07 AUDIO TITLE "Chinatown My Chinatown" PERFORMER "Chris Connor" INDEX 00 02:41:03FILE "07 - Chinatown My Chinatown.wav" WAVE INDEX 01 00:00:00 TRACK 08 AUDIO TITLE "One Love Affair" PERFORMER "Chris Connor" INDEX 00 02:07:45FILE "08 - One Love Affair.wav" WAVE INDEX 01 00:00:00 TRACK 09 AUDIO TITLE "The Night We Called It A Day" PERFORMER "Chris Connor" INDEX 00 02:41:07FILE "09 - The Night We Called It A Day.wav" WAVE INDEX 01 00:00:00 TRACK 10 AUDIO TITLE "Johnny One Note" PERFORMER "Chris Connor" INDEX 00 03:21:46FILE "10 - Johnny One Note.wav" WAVE INDEX 01 00:00:00 TRACK 11 AUDIO TITLE "Lover Man" PERFORMER "Chris Connor" INDEX 00 01:58:53FILE "11 - Lover Man.wav" WAVE INDEX 01 00:00:00 TRACK 12 AUDIO TITLE "Be My All" PERFORMER "Chris Connor" INDEX 00 03:50:28FILE "12 - Be My All.wav" WAVE INDEX 01 00:00:00
Chris Connor (vocals); Al Cohn, Lucky Thompson (tenor saxophone); Joe Wilder (trumpet); Sam Most (flute); Eddie Costa (vibraphone); Ralph Sharon (piano); Joe Puma (guitar); Oscar Pettiford (bass); Osie Johnson (drums); Chano Pozo (bongos); Mongo Santamaria (congas).


Трекер:  [ 28-Янв-2012 12:35 ]

  

Скачать .torrent

Размер .torrent файла 20 KB


Размер: 236 MB
Хэш (hash) релиза: ee2d2065bd04a8143dbfa913edfee88689367da8

Еще никто не оставлял запись к записи скачать торрент Chris Connor - Chris Craft - 1994, FLAC . Будь первым!

!Обратная связь