Скачать через торрент музыку Lee Konitz - The Lee Konitz Duets - 1967, FLAC бесплатно без регистрации torrent

Если у вас наблюдаются проблемы со скриншотами, переходом по ссылками, скачиванием торрентов - проблемы в блокировщике рекламы AdBlock. #хорошегоДня!


Статистика раздачи
Размер:  265 MB   |    Зарегистрирован:  5 лет 8 месяцев   |    .torrent скачан:  35 раз   |   
Раздают:  1  
   
Загрузка...
 
Автор Сообщение

Umakiro

avatar Umakiro


Lee Konitz - The Lee Konitz Duets

Жанр: Cool
Страна-производитель диска: E.U.
Год издания диска: 1967/1990
Издатель (лейбл): MILESTONE
Номер по каталогу: 00025218646628
Страна: U.S.A.
Аудиокодек: FLAC (*.flac)
Тип рипа: image+.cue
Битрейт аудио: lossless
Продолжительность: 45:00
Источник (релизер): shatterhand
Наличие сканов в содержимом раздачи: да
Треклист:
01. Struttin' With Some Barbecue (3:08)
02. You Don't Know What Love Is (3:33)
03. Variations On Alone Together (15:03)
04. Checkerboard (5:51)
05. Erb (3:09)
06. Tickle Toe (2:59)
07. Duplexity (6:20)
08. Alphanumeric (5:18)

Состав:
Lee Konitz - alto, tenor, baritone
Jim Hall - guitar
Joe Henderson; Richie Kamuca - tenor saxes
Marshall Brown - trombone
Dick Katz - piano
Ray Nance - violin

Этот состав указан на задней стороне обложки
Lee Konitz
Jim Hall;
Joe Henderson;
Elvin Jones;
Eddie Gomez;
Dick Katz;
Ray Nance
 
Exact Audio Copy V0.99 prebeta 5 from 4. May 2009

EAC extraction logfile from 18. July 2011, 0:29

Lee Konitz / The Lee Konitz Duets

Used drive : TSSTcorpCDDVDW SH-S223F Adapter: 3 ID: 0

Read mode : SecureUtilize accurate stream : YesDefeat audio cache : YesMake use of C2 pointers : No

Read offset correction : 6Overread into Lead-In and Lead-Out : NoFill up missing offset samples with silence : YesDelete leading and trailing silent blocks : NoNull samples used in CRC calculations : YesUsed interface : Native Win32 interface for Win NT & 2000

Used output format : User Defined EncoderSelected bitrate : 1024 kBit/sQuality : HighAdd ID3 tag : NoCommand line compressor : C:\Program Files\Exact Audio Copy\wavpack.exeAdditional command line options : -hlm %s

TOC of the extracted CD

Track | Start | Length | Start sector | End sector --------------------------------------------------------- 1 | 0:00.00 | 3:07.47 | 0 | 14071 2 | 3:07.47 | 3:33.25 | 14072 | 30071 3 | 6:40.72 | 15:03.05 | 30072 | 97801 4 | 21:44.02 | 5:50.73 | 97802 | 124124 5 | 27:35.00 | 3:09.20 | 124125 | 138319 6 | 30:44.20 | 2:59.17 | 138320 | 151761 7 | 33:43.37 | 6:19.48 | 151762 | 180234 8 | 40:03.10 | 5:17.72 | 180235 | 204081

Range status and errors

Selected range

Filename D:\temp\Misic\Lee Konitz - The Lee Konitz Duets\Lee Konitz - The Lee Konitz Duets.wav

Peak level 91.1 % Range quality 100.0 % Test CRC 2B4E61B4 Copy CRC 2B4E61B4 Copy OK

No errors occurred

AccurateRip summary

Track 1 accurately ripped (confidence 2) [F166DC81]Track 2 accurately ripped (confidence 2) [83D65E20]Track 3 accurately ripped (confidence 2) [B4005D90]Track 4 accurately ripped (confidence 2) [09779CDD]Track 5 accurately ripped (confidence 2) [35849701]Track 6 accurately ripped (confidence 2) [416ACE45]Track 7 accurately ripped (confidence 2) [780F4BA3]Track 8 accurately ripped (confidence 2) [CAF8F79B]

All tracks accurately ripped

End of status report
 
REM GENRE "Jazz"REM DATE 1967REM DISCID 5E0AA108REM COMMENT "ExactAudioCopy v0.99pb5"PERFORMER "Lee Konitz"TITLE "The Lee Konitz Duets"FILE "Lee Konitz - The Lee Konitz Duets (1967).flac" WAVE TRACK 01 AUDIO TITLE "Struttin' With Some Barbecue" PERFORMER "Lee Konitz" INDEX 01 00:00:00 TRACK 02 AUDIO TITLE "You Don't Know What Love Is" PERFORMER "Lee Konitz" INDEX 00 03:05:15 INDEX 01 03:07:47 TRACK 03 AUDIO TITLE "Variations On Alone Together" PERFORMER "Lee Konitz" INDEX 00 06:37:62 INDEX 01 06:40:72 TRACK 04 AUDIO TITLE "Checkerboard" PERFORMER "Lee Konitz" INDEX 00 21:40:00 INDEX 01 21:44:02 TRACK 05 AUDIO TITLE "Erb" PERFORMER "Lee Konitz" INDEX 00 27:32:17 INDEX 01 27:35:00 TRACK 06 AUDIO TITLE "Tickle Toe" PERFORMER "Lee Konitz" INDEX 00 30:41:35 INDEX 01 30:44:20 TRACK 07 AUDIO TITLE "Duplexity" PERFORMER "Lee Konitz" INDEX 00 33:40:05 INDEX 01 33:43:37 TRACK 08 AUDIO TITLE "Alphanumeric" PERFORMER "Lee Konitz" INDEX 00 40:01:17 INDEX 01 40:03:10
 
[CUETools log; Date: 15.08.2011 10:05:11; Version: 2.0.9][AccurateRip ID: 000e59b6-0060258a-5e0aa108] found.Track [ CRC ] Status 01 [f166dc81] (3/3) Accurately ripped 02 [83d65e20] (3/3) Accurately ripped 03 [b4005d90] (3/3) Accurately ripped 04 [09779cdd] (3/3) Accurately ripped 05 [35849701] (3/3) Accurately ripped 06 [416ace45] (3/3) Accurately ripped 07 [780f4ba3] (3/3) Accurately ripped 08 [caf8f79b] (3/3) Accurately rippedOffsetted by 474: 01 [39962ca6] (0/3) No match 02 [d12c1d61] (0/3) No match 03 [07dddb89] (0/3) No match 04 [c0d7056b] (0/3) No match 05 [e9145e1b] (0/3) No match 06 [97186b0d] (0/3) No match 07 [7977c401] (0/3) No match 08 [9f3175b2] (0/3) No match

Track Peak [ CRC32 ] [W/O NULL] [ LOG ] -- 91,1 [2B4E61B4] [1B0540C2] CRC32 01 91,1 [CEAE0DE0] [988A9EDC] 02 60,7 [602BDF6B] [5DCB16F0] 03 70,8 [8C6893A9] [9FEF2ABA] 04 67,7 [5259B16B] [78C68B33] 05 56,3 [B1FACC24] [BF415170] 06 70,4 [4E0A39B1] [E2299FA4] 07 86,0 [352FB1EE] [901FCEF4] 08 90,7 [22C6F001] [2A22494D]


Трекер:  [ 28-Янв-2012 12:35 ]

  

Скачать .torrent

Размер .torrent файла 12 KB


Размер: 265 MB
Хэш (hash) релиза: c9dd3634002a8c1c17ffe8a3ea786879ab655800

Еще никто не оставлял запись к записи скачать торрент Lee Konitz - The Lee Konitz Duets - 1967, FLAC . Будь первым!

!Обратная связь