Скачать через торрент музыку Chet Baker - Somewhere Over The Rainbow - 1962, APE бесплатно без регистрации torrent

Если у вас наблюдаются проблемы со скриншотами, переходом по ссылками, скачиванием торрентов - проблемы в блокировщике рекламы AdBlock. #хорошегоДня!


Статистика раздачи
Размер:  198 MB   |    Зарегистрирован:  5 лет 8 месяцев   |    .torrent скачан:  36 раз   |   
Раздают:  1  
   
Загрузка...
 
Автор Сообщение

Umakiro

avatar Umakiro


Chet Baker - Somewhere Over The Rainbow

Жанр: Cool
Год выпуска диска: 1962
Производитель диска: USA
Аудио кодек: APE
Тип рипа: image+.cue
Битрейт аудио: lossless
Продолжительность: 36:39
Лейбл: Bluebird
Источник: NoNaMe

Трэклист:
1. Well, You Needn't
2. These Foolish Things
3. Star Eyes
4. Over the Rainbow
5. Pent-Up House
6. Blues in the Closet

Музыканты:
Chet Baker — trumpet
Bobby Jaspar — tenor sax, flute
Rene Thomas — guitar
Amadeo Tommasi — piano
Benoit Quersin — bass
Daniel Humair — drums
 
Exact Audio Copy V0.99 prebeta 4 from 23. January 2008

EAC extraction logfile from 12. October 2009, 23:01

Chet Baker / Somewhere Over The Rainbow

Used drive : HL-DT-STRW/DVD GCC-4242N Adapter: 1 ID: 0

Read mode : SecureUtilize accurate stream : YesDefeat audio cache : YesMake use of C2 pointers : No

Read offset correction : 102Overread into Lead-In and Lead-Out : NoFill up missing offset samples with silence : YesDelete leading and trailing silent blocks : NoNull samples used in CRC calculations : YesUsed interface : Native Win32 interface for Win NT & 2000

Used output format : Internal WAV RoutinesSample format : 44.100 Hz; 16 Bit; Stereo

TOC of the extracted CD

Track | Start | Length | Start sector | End sector --------------------------------------------------------- 1 | 0:00.00 | 6:25.47 | 0 | 28921 2 | 6:25.47 | 4:59.13 | 28922 | 51359 3 | 11:24.60 | 7:01.60 | 51360 | 82994 4 | 18:26.45 | 3:31.40 | 82995 | 98859 5 | 21:58.10 | 6:55.10 | 98860 | 129994 6 | 28:53.20 | 7:46.15 | 129995 | 164959

Range status and errors

Selected range

Filename C:\_\EAC_Out\Out\Chet Baker - Somewhere Over The Rainbow\Chet Baker - Somewhere Over The Rainbow.wav

Peak level 74.0 % Range quality 100.0 % Copy CRC 39344B57 Copy OK

No errors occurred

AccurateRip summary

Track 1 accurately ripped (confidence 1) [A779B771]Track 2 accurately ripped (confidence 1) [8ECE156B]Track 3 accurately ripped (confidence 1) [89F71E4C]Track 4 accurately ripped (confidence 1) [906D2CA9]Track 5 accurately ripped (confidence 1) [2362ADCB]Track 6 accurately ripped (confidence 1) [1528A6FD]

All tracks accurately ripped

End of status report
 
AUDIOCHECKER v1.2 - by Dester - opdester@freemail.hu~~~~~~~~~~~~~~~~~

1 -===- E:\Up-Down\Chet Baker - Somewhere Over The Rainbow\Chet Baker - Somewhere Over The Rainbow.ape Extracted successfully Conclusion: This track looks like CDDA with probability 100%


Трекер:  [ 28-Янв-2012 12:34 ]

  

Скачать .torrent

Размер .torrent файла 16 KB


Размер: 198 MB
Хэш (hash) релиза: 43c261cbaea32e9e7d200717143c0fc7692d9ce0

Еще никто не оставлял запись к записи скачать торрент Chet Baker - Somewhere Over The Rainbow - 1962, APE . Будь первым!

!Обратная связь