Скачать через торрент музыку Stan Getz - Captain Marvel - 1972, FLAC бесплатно без регистрации torrent

Если у вас наблюдаются проблемы со скриншотами, переходом по ссылками, скачиванием торрентов - проблемы в блокировщике рекламы AdBlock. #хорошегоДня!


Статистика раздачи
Размер:  278 MB   |    Зарегистрирован:  5 лет 8 месяцев   |    .torrent скачан:  31 раз   |   
Раздают:  1  
   
Загрузка...
 
Автор Сообщение

Umakiro

avatar Umakiro


Stan Getz - Captain Marvel

Жанр: Post-Bop, Fusion
Год выпуска диска: 1972
Производитель диска: EU/Austria
Аудио кодек: FLAC
Тип рипа: tracks+.cue
Продолжительность: 43:40
Трэклист:
1. La Fiesta (Corea) - 8:26
2. Five Hundred Miles High (Corea) - 8:12
3. Captain Marvel (Corea) - 5:09
4. Time's Lie (Corea/Potter) - 9:48
5. Lush Life (Strayhorn) - 4:16
6. Day Waves (Corea) - 9:43

Columbia COL 468412 (p) 1975 Sony Music Entertainment Inc.
__

Доп. информация: Переиздание альбома Стэна Гетца с группой, включавшей будущих участников прославленного коллектива Return to Forever.

Personnel: Stan Getz (tenor sax) / Chick Corea (electric piano, Fender Rhodes) / Stanley Clarke (bass) / Tony Williams (drums) / Airto Moreira (percussion)

Найдено в осле.

Сканы прилагаются.
EAC extraction logfile from 14. December 2006, 12:03 for CD
Stan Getz / Captain Marvel

Used drive : HL-DT-STDVDRAM GSA-4163B Adapter: 1 ID: 1
Read mode : Secure with NO C2, accurate stream, disable cache
Read offset correction : 667
Overread into Lead-In and Lead-Out : No

Used output format : Internal WAV Routines
44.100 Hz; 16 Bit; Stereo

Other options :
Fill up missing offset samples with silence : Yes
Delete leading and trailing silent blocks : No
Installed external ASPI interface

Track 1
Filename D:\Stan Getz - Captain Marvel (1972)[FLAC]{Columbia}\01 - La Fiesta.wav

Pre-gap length 0:00:02.32

Peak level 95.6 %
Track quality 99.9 %
Test CRC 071BA21F
Copy CRC 071BA21F
Copy OK

Track 2
Filename D:\Stan Getz - Captain Marvel (1972)[FLAC]{Columbia}\02 - Five Hundred Miles High.wav

Peak level 100.0 %
Track quality 100.0 %
Test CRC FE061923
Copy CRC FE061923
Copy OK

Track 3
Filename D:\Stan Getz - Captain Marvel (1972)[FLAC]{Columbia}\03 - Captain Marvel.wav

Pre-gap length 0:00:01.70

Peak level 99.9 %
Track quality 100.0 %
Test CRC E5A7D4CA
Copy CRC E5A7D4CA
Copy OK

Track 4
Filename D:\Stan Getz - Captain Marvel (1972)[FLAC]{Columbia}\04 - Times Lie.wav

Pre-gap length 0:00:01.66

Peak level 99.9 %
Track quality 100.0 %
Test CRC AF8289A0
Copy CRC AF8289A0
Copy OK

Track 5
Filename D:\Stan Getz - Captain Marvel (1972)[FLAC]{Columbia}\05 - Lush Life.wav

Pre-gap length 0:00:00.38

Peak level 83.6 %
Track quality 100.0 %
Test CRC FD76CE38
Copy CRC FD76CE38
Copy OK

Track 6
Filename D:\Stan Getz - Captain Marvel (1972)[FLAC]{Columbia}\06 - Day Waves.wav

Pre-gap length 0:00:01.58

Peak level 100.0 %
Track quality 100.0 %
Test CRC 8D5F079B
Copy CRC 8D5F079B
Copy OK

No errors occured

End of status report
AUDIOCHECKER v1.2 - by Dester - opdester@freemail.hu
~~~~~~~~~~~~~~~~~

1 -===- D:\Music Temp\Stan Getz - Captain Marvel (1972)[FLAC]{Columbia}\01 - La Fiesta.flac
Extracted successfully
Conclusion: This track looks like CDDA with probability 100%

2 -===- D:\Music Temp\Stan Getz - Captain Marvel (1972)[FLAC]{Columbia}\02 - Five Hundred Miles High.flac
Extracted successfully
Conclusion: This track looks like CDDA with probability 100%

3 -===- D:\Music Temp\Stan Getz - Captain Marvel (1972)[FLAC]{Columbia}\03 - Captain Marvel.flac
Extracted successfully
Conclusion: This track looks like CDDA with probability 100%

4 -===- D:\Music Temp\Stan Getz - Captain Marvel (1972)[FLAC]{Columbia}\04 - Times Lie.flac
Extracted successfully
Conclusion: This track looks like CDDA with probability 100%

5 -===- D:\Music Temp\Stan Getz - Captain Marvel (1972)[FLAC]{Columbia}\05 - Lush Life.flac
Extracted successfully
Conclusion: This track looks like CDDA with probability 100%

6 -===- D:\Music Temp\Stan Getz - Captain Marvel (1972)[FLAC]{Columbia}\06 - Day Waves.flac
Extracted successfully
Conclusion: This track looks like CDDA with probability 100%


Трекер:  [ 28-Янв-2012 12:34 ]

  

Скачать .torrent

Размер .torrent файла 12 KB


Размер: 278 MB
Хэш (hash) релиза: 794574bffb0f86e5e2f5dee0c8fccd4f86fc8a5f

Еще никто не оставлял запись к записи скачать торрент Stan Getz - Captain Marvel - 1972, FLAC . Будь первым!

!Обратная связь