Скачать через торрент музыку Kenny Burrell with Coleman Hawkins - Bluesy Burrell бесплатно без регистрации torrent

Если у вас наблюдаются проблемы со скриншотами, переходом по ссылками, скачиванием торрентов - проблемы в блокировщике рекламы AdBlock. #хорошегоДня!


Статистика раздачи
Размер:  282 MB   |    Зарегистрирован:  5 лет 8 месяцев   |    .torrent скачан:  33 раза   |   
Раздают:  1  
   
Загрузка...
 
Автор Сообщение

Umakiro

avatar Umakiro


Kenny Burrell with Coleman Hawkins - Bluesy Burrell
Жанр: Cool / Guitar / Tenor Sax
Производитель диска: Prestige/Moodsville {0888072306585}
Год издания диска: 2008
Аудио кодек: FLAC
Тип рипа: tracks+.cue
Битрейт аудио: lossless
Продолжительность: 0:39:34
Источник: AvaxHome / ruskaval
Треклист:
01. Tres Palabras (6:47)
02. No More (1:54)
03. Guilty (4:19)
04. Montono Blues (4:46)
05. I Thought About You (4:40)
06. Out Of This World (4:55)
07. It's Getting Dark (6:53)
08. I Never Knew (5:20)

Kenny Burrell - guitar
Coleman Hawkins - tenor sax
Tommy Flanagan - piano
Major Holley - bass
Eddie Locke - drums
Ray Barretto - conga
Gildo Mahones - piano [#8 only]
Leo Wright - alto sax [#8 only]
George Tucker - bass [#8 only]
Jimmie Smith - drums [#8 only]

Recorded at Van Gelder Studion Englewood Cliffs; NJ; September 14, 1962 (except #8 recorded August 15, 1963)
 
Exact Audio Copy V0.99 prebeta 5 from 4. May 2009

EAC extraction logfile from 3. September 2010, 15:29

Kenny Burrell with Coleman Hawkins / Bluesy Burrell

Used drive : TSSTcorpCD/DVDW TS-H552L Adapter: 3 ID: 0

Read mode : SecureUtilize accurate stream : YesDefeat audio cache : YesMake use of C2 pointers : No

Read offset correction : 6Overread into Lead-In and Lead-Out : NoFill up missing offset samples with silence : YesDelete leading and trailing silent blocks : NoNull samples used in CRC calculations : YesUsed interface : Native Win32 interface for Win NT & 2000Gap handling : Appended to previous track

Used output format : User Defined EncoderSelected bitrate : 1024 kBit/sQuality : HighAdd ID3 tag : NoCommand line compressor : C:\Program Files\FLAC\flac.exeAdditional command line options : -6 -V -T "ARTIST=%a" -T "TITLE=%t" -T "ALBUM=%g" -T "DATE=%y" -T "TRACKNUMBER=%n" -T "GENRE=%m" -T "COMMENT=EAC FLAC -6" %s

TOC of the extracted CD

Track | Start | Length | Start sector | End sector --------------------------------------------------------- 1 | 0:00.00 | 6:46.52 | 0 | 30501 2 | 6:46.52 | 1:53.62 | 30502 | 39038 3 | 8:40.39 | 4:18.64 | 39039 | 58452 4 | 12:59.28 | 4:45.62 | 58453 | 79889 5 | 17:45.15 | 4:40.16 | 79890 | 100905 6 | 22:25.31 | 4:54.74 | 100906 | 123029 7 | 27:20.30 | 6:53.30 | 123030 | 154034 8 | 34:13.60 | 5:19.62 | 154035 | 178021

Track 1

Filename C:\ruskaval\Kenny Burrell with Coleman Hawkins - Bluesy Burrell (1962) {2008 Prestige Rudy Van Gelder Remaster}\01 - Tres Palabras.wav

Pre-gap length 0:00:02.00

Peak level 97.9 % Track quality 100.0 % Test CRC EE6AA6B0 Copy CRC EE6AA6B0 Accurately ripped (confidence 6) [D41D3C0B] Copy OK

Track 2

Filename C:\ruskaval\Kenny Burrell with Coleman Hawkins - Bluesy Burrell (1962) {2008 Prestige Rudy Van Gelder Remaster}\02 - No More.wav

Pre-gap length 0:00:03.30

Peak level 77.7 % Track quality 100.0 % Test CRC 115E8877 Copy CRC 115E8877 Accurately ripped (confidence 6) [7469B390] Copy OK

Track 3

Filename C:\ruskaval\Kenny Burrell with Coleman Hawkins - Bluesy Burrell (1962) {2008 Prestige Rudy Van Gelder Remaster}\03 - Guilty.wav

Pre-gap length 0:00:03.59

Peak level 97.9 % Track quality 100.0 % Test CRC 516593F1 Copy CRC 516593F1 Accurately ripped (confidence 6) [7A2172BF] Copy OK

Track 4

Filename C:\ruskaval\Kenny Burrell with Coleman Hawkins - Bluesy Burrell (1962) {2008 Prestige Rudy Van Gelder Remaster}\04 - Montono Blues.wav

Pre-gap length 0:00:03.03

Peak level 97.9 % Track quality 100.0 % Test CRC F045B717 Copy CRC F045B717 Accurately ripped (confidence 6) [14BC50A2] Copy OK

Track 5

Filename C:\ruskaval\Kenny Burrell with Coleman Hawkins - Bluesy Burrell (1962) {2008 Prestige Rudy Van Gelder Remaster}\05 - I Thought About You.wav

Pre-gap length 0:00:02.37

Peak level 97.9 % Track quality 100.0 % Test CRC B5E3CEB6 Copy CRC B5E3CEB6 Accurately ripped (confidence 6) [607D6091] Copy OK

Track 6

Filename C:\ruskaval\Kenny Burrell with Coleman Hawkins - Bluesy Burrell (1962) {2008 Prestige Rudy Van Gelder Remaster}\06 - Out Of This World.wav

Pre-gap length 0:00:02.19

Peak level 97.9 % Track quality 100.0 % Test CRC 980BCE01 Copy CRC 980BCE01 Accurately ripped (confidence 6) [34AE2D56] Copy OK

Track 7

Filename C:\ruskaval\Kenny Burrell with Coleman Hawkins - Bluesy Burrell (1962) {2008 Prestige Rudy Van Gelder Remaster}\07 - It's Getting Dark.wav

Pre-gap length 0:00:02.12

Peak level 97.9 % Track quality 99.9 % Test CRC A4BEE4C4 Copy CRC A4BEE4C4 Accurately ripped (confidence 6) [F55AAE8D] Copy OK

Track 8

Filename C:\ruskaval\Kenny Burrell with Coleman Hawkins - Bluesy Burrell (1962) {2008 Prestige Rudy Van Gelder Remaster}\08 - I Never Knew.wav

Pre-gap length 0:00:02.06

Peak level 97.9 % Track quality 100.0 % Test CRC C1D56A34 Copy CRC C1D56A34 Accurately ripped (confidence 6) [82525980] Copy OK

All tracks accurately ripped

No errors occurred

End of status report
 
REM GENRE JazzREM DATE 1962REM DISCID 5D094508REM COMMENT "ExactAudioCopy v0.99pb5"PERFORMER "Kenny Burrell with Coleman Hawkins"TITLE "Bluesy Burrell"FILE "01 - Tres Palabras.wav" WAVE TRACK 01 AUDIO TITLE "Tres Palabras" PERFORMER "Kenny Burrell with Coleman Hawkins" INDEX 01 00:00:00 TRACK 02 AUDIO TITLE "No More" PERFORMER "Kenny Burrell with Coleman Hawkins" INDEX 00 06:43:22FILE "02 - No More.wav" WAVE INDEX 01 00:00:00 TRACK 03 AUDIO TITLE "Guilty" PERFORMER "Kenny Burrell with Coleman Hawkins" INDEX 00 01:50:03FILE "03 - Guilty.wav" WAVE INDEX 01 00:00:00 TRACK 04 AUDIO TITLE "Montono Blues" PERFORMER "Kenny Burrell with Coleman Hawkins" INDEX 00 04:15:61FILE "04 - Montono Blues.wav" WAVE INDEX 01 00:00:00 TRACK 05 AUDIO TITLE "I Thought About You" PERFORMER "Kenny Burrell with Coleman Hawkins" INDEX 00 04:43:25FILE "05 - I Thought About You.wav" WAVE INDEX 01 00:00:00 TRACK 06 AUDIO TITLE "Out Of This World" PERFORMER "Kenny Burrell with Coleman Hawkins" INDEX 00 04:37:72FILE "06 - Out Of This World.wav" WAVE INDEX 01 00:00:00 TRACK 07 AUDIO TITLE "It's Getting Dark" PERFORMER "Kenny Burrell with Coleman Hawkins" INDEX 00 04:52:62FILE "07 - It's Getting Dark.wav" WAVE INDEX 01 00:00:00 TRACK 08 AUDIO TITLE "I Never Knew " PERFORMER "Kenny Burrell with Coleman Hawkins" INDEX 00 06:51:24FILE "08 - I Never Knew.wav" WAVE INDEX 01 00:00:00


Трекер:  [ 28-Янв-2012 12:33 ]

  

Скачать .torrent

Размер .torrent файла 12 KB


Размер: 282 MB
Хэш (hash) релиза: b989ff429520b37d54963982c91a8c691c754ff9

Еще никто не оставлял запись к записи скачать торрент Kenny Burrell with Coleman Hawkins - Bluesy Burrell . Будь первым!

!Обратная связь