Скачать через торрент музыку Antoine Herve - Mozart, la nuit бесплатно без регистрации torrent

Если у вас наблюдаются проблемы со скриншотами, переходом по ссылками, скачиванием торрентов - проблемы в блокировщике рекламы AdBlock. #хорошегоДня!


Статистика раздачи
Размер:  329 MB   |    Зарегистрирован:  5 лет 8 месяцев   |    .torrent скачан:  35 раз   |   
Раздают:  1  
   
Загрузка...
 
Автор Сообщение

Umakiro

avatar Umakiro


Antoine Hervé - Mozart, la nuit (jazz'n'groove)

Жанр: Contemporary Jazz
Страна-производитель диска: France
Год издания диска: 2002
Издатель (лейбл): Nocturne NTCD 322
Аудио кодек: FLAC (*.flac)
Тип рипа: image+.cue
Битрейт аудио: lossless
Продолжительность: 57:24
Источник (релизер): собственный рип
Наличие сканов в содержимом раздачи: нет

1. Amadeus Blues
2. Cherubino Underground
3. Laudate, la nuit
4. Vedi-vedila
5. God's Anger
6. Mysterioso
7. Uranie
8. Noctuelle
9. Onirik Mekanik
10. Appulse
 
Exact Audio Copy V0.99 prebeta 4 from 23. January 2008

EAC extraction logfile from 2. August 2009, 15:15

Antoine Hervé / Mozart, la nuit

Used drive : TSSTcorpCD/DVDW SH-S182M Adapter: 2 ID: 0

Read mode : SecureUtilize accurate stream : YesDefeat audio cache : YesMake use of C2 pointers : No

Read offset correction : 6Overread into Lead-In and Lead-Out : NoFill up missing offset samples with silence : YesDelete leading and trailing silent blocks : NoNull samples used in CRC calculations : YesUsed interface : Installed external ASPI interface

Used output format : User Defined EncoderSelected bitrate : 1024 kBit/sQuality : HighAdd ID3 tag : NoCommand line compressor : C:\Program Files\Exact Audio Copy\FLAC\FLAC.EXEAdditional command line options : -6 -V -T "ARTIST=%a" -T "TITLE=%t" -T "ALBUM=%g" -T "DATE=%y" -T "TRACKNUMBER=%n" -T "GENRE=%m" -T "COMMENT=%e" %s -o %d

TOC of the extracted CD

Track | Start | Length | Start sector | End sector --------------------------------------------------------- 1 | 0:00.00 | 5:57.50 | 0 | 26824 2 | 5:57.50 | 5:26.37 | 26825 | 51311 3 | 11:24.12 | 4:53.00 | 51312 | 73286 4 | 16:17.12 | 5:59.13 | 73287 | 100224 5 | 22:16.25 | 4:27.25 | 100225 | 120274 6 | 26:43.50 | 4:26.70 | 120275 | 140294 7 | 31:10.45 | 12:35.00 | 140295 | 196919 8 | 43:45.45 | 3:07.02 | 196920 | 210946 9 | 46:52.47 | 4:46.05 | 210947 | 232401 10 | 51:38.52 | 5:45.08 | 232402 | 258284

Range status and errors

Selected range

Filename C:\Documents and Settings\Igor\My Documents\My Music\eac\Antoine Hervé - Mozart, la nuit.wav

Peak level 98.6 % Range quality 100.0 % Test CRC 8A52F002 Copy CRC 8A52F002 Copy OK

No errors occurred

AccurateRip summary

Track 1 not present in databaseTrack 2 not present in databaseTrack 3 not present in databaseTrack 4 not present in databaseTrack 5 not present in databaseTrack 6 not present in databaseTrack 7 not present in databaseTrack 8 not present in databaseTrack 9 not present in databaseTrack 10 not present in database

None of the tracks are present in the AccurateRip database

End of status report


Трекер:  [ 28-Янв-2012 12:29 ]

  

Скачать .torrent

Размер .torrent файла 13 KB


Размер: 329 MB
Хэш (hash) релиза: 84685204e27619c988902d3bb6b2c41e36e6d178

Еще никто не оставлял запись к записи скачать торрент Antoine Herve - Mozart, la nuit . Будь первым!

!Обратная связь