Скачать через торрент музыку John Lewis - The Bridge Game Vol. 2 - 1986, FLAC бесплатно без регистрации torrent

Если у вас наблюдаются проблемы со скриншотами, переходом по ссылками, скачиванием торрентов - проблемы в блокировщике рекламы AdBlock. #хорошегоДня!


Статистика раздачи
Размер:  211 MB   |    Зарегистрирован:  5 лет 8 месяцев   |    .torrent скачан:  28 раз   |   
Раздают:  1  
   
Загрузка...
 
Автор Сообщение

Umakiro

avatar Umakiro


•John Lewis - The Bridge Game Vol. 2•

Жанр: Cool, Third Stream, Classical
Страна-производитель диска: Germany
Год издания диска: 1986
Издатель (лейбл): Nippon Phonogram
Номер по каталогу: 826 698-2
Аудиокодек: FLAC (*.flac)
Тип рипа: image+.cue
Битрейт аудио: lossless
Продолжительность: 00:51:28
Источник (релизер): janwal46
Наличие сканов в содержимом раздачи: да

Треклист:

01. Prelude #9 in E {One at Heart}
02. Fugue #9 in E {The Game Demand}
03. Prelude #4 in C# Minor {Two Clubs}
04. Fugue #4 in C# Minor {A Little Slam in Diamonds}
05. Prelude #5 in D {One Spade (Tears From The Children)}
06. Fugue #5 in D {The Preempt}
07. Prelude #16 in G Minor {One Diamond}
08. Fugue #16 in G Minor {The Takeout Double}
09. Prelude #8 in Eb Minor {Two Clubs}
10. Prelude #8 in Eb Minor {The Invitation to a Slam}


Personnel:

John Lewis - Piano
Joel Lester - Violin
Lois Martin - Viola (04)
Scott Nickrenz - Viola (08)
Howard Collins - Guitar
Marc Johnson – BassRecorded Rutgers Church, NY, January 16, 18, 19, 23-25, 1984 & October 1-3, 1985.
 
Exact Audio Copy V0.99 prebeta 5 from 4. May 2009

EAC extraction logfile from 28. August 2009, 21:43

John Lewis / The Bridge Game Vol. 2

Used drive : _NEC DVD_RW ND-3520A Adapter: 1 ID: 1

Read mode : SecureUtilize accurate stream : YesDefeat audio cache : YesMake use of C2 pointers : No

Read offset correction : 48Overread into Lead-In and Lead-Out : NoFill up missing offset samples with silence : YesDelete leading and trailing silent blocks : NoNull samples used in CRC calculations : NoUsed interface : Native Win32 interface for Win NT & 2000

Used output format : Internal WAV RoutinesSample format : 44.100 Hz; 16 Bit; Stereo

TOC of the extracted CD

Track | Start | Length | Start sector | End sector --------------------------------------------------------- 1 | 0:00.33 | 3:11.40 | 33 | 14397 2 | 3:11.73 | 3:48.07 | 14398 | 31504 3 | 7:00.05 | 5:56.05 | 31505 | 58209 4 | 12:56.10 | 5:09.48 | 58210 | 81432 5 | 18:05.58 | 3:56.25 | 81433 | 99157 6 | 22:02.08 | 4:08.12 | 99158 | 117769 7 | 26:10.20 | 4:13.25 | 117770 | 136769 8 | 30:23.45 | 6:56.05 | 136770 | 167974 9 | 37:19.50 | 4:32.03 | 167975 | 188377 10 | 41:51.53 | 9:37.05 | 188378 | 231657

Range status and errors

Selected range

Filename G:\AVAXHOME\John Lewis - The Bridge Game Vol. 2 (1985)\John Lewis - The Bridge Game Vol. 2.wav

Peak level 97.1 % Range quality 99.9 % Copy CRC 850C7867 Copy OK

No errors occurred

AccurateRip summary

Track 1 cannot be verified as accurate (confidence 2) [3AC9D251], AccurateRip returned [36B3D33E]Track 2 cannot be verified as accurate (confidence 2) [5887F0AC], AccurateRip returned [D8DB8975]Track 3 cannot be verified as accurate (confidence 2) [7C6665D9], AccurateRip returned [5C12444A]Track 4 cannot be verified as accurate (confidence 2) [205CF8ED], AccurateRip returned [D183DEB4]Track 5 cannot be verified as accurate (confidence 2) [C39DCE26], AccurateRip returned [33FF1DB9]Track 6 cannot be verified as accurate (confidence 2) [60A8216B], AccurateRip returned [A156725C]Track 7 cannot be verified as accurate (confidence 2) [91F904DA], AccurateRip returned [EA2CA90C]Track 8 cannot be verified as accurate (confidence 2) [A4DF88E1], AccurateRip returned [6B7BD454]Track 9 not present in databaseTrack 10 not present in database

8 track(s) could not be verified as accurate 2 track(s) not present in the AccurateRip database

No tracks could be verified as accurateYou may have a different pressing from the one(s) in the database

End of status report
 
REM GENRE JazzREM DATE 1985REM DISCID 7A0C100AREM COMMENT "ExactAudioCopy v0.99pb5"PERFORMER "John Lewis"TITLE "The Bridge Game Vol. 2"FILE "John Lewis - The Bridge Game Vol. 2.wav" WAVE TRACK 01 AUDIO TITLE "09 Prelude #9 in E" PERFORMER "John Lewis" INDEX 00 00:00:00 INDEX 01 00:00:33 TRACK 02 AUDIO TITLE "09 Fugue #9 in E" PERFORMER "John Lewis" INDEX 01 03:11:73 TRACK 03 AUDIO TITLE "04 Prelude #4 in C# Minor" PERFORMER "John Lewis" INDEX 00 06:53:65 INDEX 01 07:00:05 TRACK 04 AUDIO TITLE "04 Fugue #4 in C# Minor" PERFORMER "John Lewis" INDEX 01 12:56:10 TRACK 05 AUDIO TITLE "05 Prelude #5 in D" PERFORMER "John Lewis" INDEX 00 17:59:73 INDEX 01 18:05:58 TRACK 06 AUDIO TITLE "05 Fugue #5 in D" PERFORMER "John Lewis" INDEX 01 22:02:08 TRACK 07 AUDIO TITLE "16 Prelude #16 in G Minor" PERFORMER "John Lewis" INDEX 00 26:04:45 INDEX 01 26:10:20 TRACK 08 AUDIO TITLE "16 Fugue #16 in G Minor" PERFORMER "John Lewis" INDEX 01 30:23:45 TRACK 09 AUDIO TITLE "08 Prelude #8 in Eb Minor" PERFORMER "John Lewis" INDEX 00 37:14:00 INDEX 01 37:19:50 TRACK 10 AUDIO TITLE "08 Prelude #8 in Eb Minor" PERFORMER "John Lewis" INDEX 01 41:51:53


Трекер:  [ 28-Янв-2012 12:29 ]

  

Скачать .torrent

Размер .torrent файла 17 KB


Размер: 211 MB
Хэш (hash) релиза: eaee78301581d8acfa8a58a60c7a20f7dacaf5a1

Еще никто не оставлял запись к записи скачать торрент John Lewis - The Bridge Game Vol. 2 - 1986, FLAC . Будь первым!

!Обратная связь