Скачать через торрент музыку Paul Desmond - Pure Desmond {1974) - 1987, FLAC бесплатно без регистрации torrent

Если у вас наблюдаются проблемы со скриншотами, переходом по ссылками, скачиванием торрентов - проблемы в блокировщике рекламы AdBlock. #хорошегоДня!


Статистика раздачи
Размер:  263 MB   |    Зарегистрирован:  5 лет 8 месяцев   |    .torrent скачан:  32 раза   |   
Раздают:  1  
   
Загрузка...
 
Автор Сообщение

Umakiro

avatar Umakiro


•Paul Desmond - Pure Desmond {1974)•

Жанр: Cool
Страна-производитель диска: Austria
Год издания диска: 1987
Издатель (лейбл): CBS/EPIC
Номер по каталогу: EPC 450572 2
Аудиокодек: FLAC (*.flac)
Тип рипа: image+.cue
Битрейт аудио: lossless
Продолжительность: 00:46:07
Источник (релизер): janwal46
Наличие сканов в содержимом раздачи: да

Треклист:

01. Squeeze Me
02. I'm Old Fashioned
03. Nuages
04. Why Shouldn't I?
05. Everything I Love
06. Warm Valley
07. Till the Clouds Roll By
08. Mean to Me
09. Theme from M*A*S*H (Suicide Is Painless)
10. Wave
Personnel:

Paul Desmond - Alto Saxophone
Ed Bickert - Guitar
Ron Carter - Bass
Connie Kay – DrumsRecorded By Rudy Van Gelder At His Studios At Englewood Cliffs, NJ, September 24-26, 1974.
 
Exact Audio Copy V0.99 prebeta 4 from 23. January 2008

EAC extraction logfile from 20. August 2009, 11:03

Paul Desmond / Pure Desmond

Used drive : Optiarc DVD RW AD-7173A Adapter: 1 ID: 0

Read mode : SecureUtilize accurate stream : YesDefeat audio cache : YesMake use of C2 pointers : No

Read offset correction : 48Overread into Lead-In and Lead-Out : NoFill up missing offset samples with silence : YesDelete leading and trailing silent blocks : NoNull samples used in CRC calculations : NoUsed interface : Native Win32 interface for Win NT & 2000

Used output format : Internal WAV RoutinesSample format : 44.100 Hz; 16 Bit; Stereo

TOC of the extracted CD

Track | Start | Length | Start sector | End sector --------------------------------------------------------- 1 | 0:00.00 | 4:34.25 | 0 | 20574 2 | 4:34.25 | 4:57.60 | 20575 | 42909 3 | 9:32.10 | 5:16.35 | 42910 | 66644 4 | 14:48.45 | 3:37.12 | 66645 | 82931 5 | 18:25.57 | 3:51.03 | 82932 | 100259 6 | 22:16.60 | 4:28.57 | 100260 | 120416 7 | 26:45.42 | 4:10.70 | 120417 | 139236 8 | 30:56.37 | 5:49.03 | 139237 | 165414 9 | 36:45.40 | 3:04.17 | 165415 | 179231 10 | 39:49.57 | 6:17.20 | 179232 | 207526

Range status and errors

Selected range

Filename G:\AVAXHOME\Paul Desmond - Pure Desmond (1975)\Paul Desmond - Pure Desmond.wav

Peak level 92.9 % Range quality 100.0 % Copy CRC A4AB3332 Copy OK

No errors occurred

AccurateRip summary

Track 1 not present in databaseTrack 2 not present in databaseTrack 3 not present in databaseTrack 4 not present in databaseTrack 5 not present in databaseTrack 6 not present in databaseTrack 7 not present in databaseTrack 8 not present in databaseTrack 9 not present in databaseTrack 10 not present in database

None of the tracks are present in the AccurateRip database

End of status report
 
REM GENRE JazzREM DATE 1975REM DISCID 880ACF0AREM COMMENT "ExactAudioCopy v0.99pb4"PERFORMER "Paul Desmond"TITLE "Pure Desmond"FILE "Paul Desmond - Pure Desmond.wav" WAVE TRACK 01 AUDIO TITLE "Squeeze Me" PERFORMER "Paul Desmond" INDEX 01 00:00:00 TRACK 02 AUDIO TITLE "I'm Old Fashioned" PERFORMER "Paul Desmond" INDEX 00 04:32:07 INDEX 01 04:34:25 TRACK 03 AUDIO TITLE "Nuages [Alternate Take]" PERFORMER "Paul Desmond" INDEX 00 09:29:72 INDEX 01 09:32:10 TRACK 04 AUDIO TITLE "Why Shouldn't I?" PERFORMER "Paul Desmond" INDEX 00 14:47:22 INDEX 01 14:48:45 TRACK 05 AUDIO TITLE "Everything I Love" PERFORMER "Paul Desmond" INDEX 00 18:24:10 INDEX 01 18:25:57 TRACK 06 AUDIO TITLE "Warm Valley" PERFORMER "Paul Desmond" INDEX 00 22:15:15 INDEX 01 22:16:60 TRACK 07 AUDIO TITLE "Till the Clouds Roll By" PERFORMER "Paul Desmond" INDEX 00 26:43:55 INDEX 01 26:45:42 TRACK 08 AUDIO TITLE "Mean to Me" PERFORMER "Paul Desmond" INDEX 00 30:54:57 INDEX 01 30:56:37 TRACK 09 AUDIO TITLE "Theme from M*A*S*H (Suicide Is Painless)" PERFORMER "Paul Desmond" INDEX 00 36:44:00 INDEX 01 36:45:40 TRACK 10 AUDIO TITLE "Wave" PERFORMER "Paul Desmond" INDEX 00 39:47:55 INDEX 01 39:49:57


Трекер:  [ 28-Янв-2012 12:28 ]

  

Скачать .torrent

Размер .torrent файла 11 KB


Размер: 263 MB
Хэш (hash) релиза: 644694db15a2c8c80955bab274557221e525b05f

Еще никто не оставлял запись к записи скачать торрент Paul Desmond - Pure Desmond {1974) - 1987, FLAC . Будь первым!

!Обратная связь