Скачать через торрент музыку Joe Henderson - Mode For Joe - 1966, FLAC бесплатно без регистрации torrent

Если у вас наблюдаются проблемы со скриншотами, переходом по ссылками, скачиванием торрентов - проблемы в блокировщике рекламы AdBlock. #хорошегоДня!


Статистика раздачи
Размер:  300 MB   |    Зарегистрирован:  5 лет 8 месяцев   |    .torrent скачан:  30 раз   |   
Раздают:  1  
   
Загрузка...
 
Автор Сообщение

Umakiro

avatar Umakiro


Joe Henderson - Mode For Joe {RVG Edition}

Жанр: Post-Bop/Hard Bop
Год выпуска диска: 1966
Производитель диска: USA
Аудио кодек: FLAC
Тип рипа: image+.cue
Битрейт аудио: lossless
Продолжительность: 49:31
Лейбл: Blue Note
Источник: NoNaMe

Трэклист:
1. A Shade Of Jade
2. Mode For Joe
3. Black
4. Caribbean Fire Dance
5. Granted
6. Free Wheelin'
7. Black [alternate take]

Музыканты:
Lee Morgan, trumpet
Curtis Fuller, trombone
Joe Henderson, tenor sax
Bobby Hutcherson, vibes
Cedar Walton, piano
Ron Carter, bass
Joe Chambers, drums

Originally recorded on January 27, 1966 at the Van Gelder Studio, Englewood Cliffs, New Jersey
Remastered in 2003 by Rudy Van Gelder
 
Exact Audio Copy V0.99 prebeta 3 from 28. July 2007

Отчёт EAC об извлечении, выполненном 10. сентября 2008, 21:00

Joe Henderson / Mode For Joe (RVG Edition)

Дисковод: _NEC DVD_RW ND-3540A Adapter: 2 ID: 0

Режим чтения : ДостоверностьИспользование точного потока : ДаОтключение кэша аудио : ДаИспользование указателей C2 : Нет

Коррекция смещения при чтении : 48Способность читать области Lead-in и Lead-out : НетЗаполнение пропущенных сэмплов тишиной : ДаУдаление блоков с тишиной в начале и конце : НетПри вычислениях CRC использовались нулевые сэмплы : ДаИнтерфейс : Установленный внешний ASPI-интерфейс

Выходной формат : Пользовательский кодировщикВыбранный битрейт : 768 kBit/sКачество : ВысокийДобавление ID3-тэга : ДаУтилита сжатия : C:\Program Files\Exact Audio Copy\FLAC\FLAC.EXEДополнительные параметры : -6 -V -T "ARTIST=%a" -T "TITLE=%t" -T "ALBUM=%g" -T "DATE=%y" -T "TRACKNUMBER=%n" -T "GENRE=%m" -T "COMMENT=%e" %s -o %d

TOC извлечённого CD

Трек | Старт | Длительность | Начальный сектор | Конечный сектор --------------------------------------------------------------------- 1 | 0:00.00 | 7:08.15 | 0 | 32114 2 | 7:08.15 | 8:00.70 | 32115 | 68184 3 | 15:09.10 | 6:51.65 | 68185 | 99074 4 | 22:01.00 | 6:41.64 | 99075 | 129213 5 | 28:42.64 | 7:20.32 | 129214 | 162245 6 | 36:03.21 | 6:39.36 | 162246 | 192206 7 | 42:42.57 | 6:48.34 | 192207 | 222840

Характеристики диапазона извлечения и сообщения об ошибках

Выбранный диапазон

Имя файла C:\Documents and Settings\Миша\Мои документы\Joe Henderson - Mode For Joe\Joe Henderson - Mode For Joe (RVG Edition).wav

Пиковый уровень 97.9 % Качество диапазона 100.0 % CRC копии C294F1DA Копирование... OK

Ошибок не произошло

AccurateRip: сводка

Трек 1 точное извлечение (доверие 2) [CAF6FDB9]Трек 2 точное извлечение (доверие 2) [F67F458D]Трек 3 точное извлечение (доверие 2) [045FF332]Трек 4 точное извлечение (доверие 2) [EFD50BC2]Трек 5 точное извлечение (доверие 2) [D1C15A8A]Трек 6 точное извлечение (доверие 2) [58DFA219]Трек 7 точное извлечение (доверие 2) [6CE023FB]

Все треки извлечены точно

Конец отчёта
 
AUDIOCHECKER v1.2 - by Dester - opdester@freemail.hu~~~~~~~~~~~~~~~~~

1 -===- E:\Up-Down\Joe Henderson - Mode For Joe\Joe Henderson - Mode For Joe (RVG Edition).flac Extracted successfully Conclusion: This track looks like CDDA with probability 100%


Трекер:  [ 28-Янв-2012 12:10 ]

  

Скачать .torrent

Размер .torrent файла 12 KB


Размер: 300 MB
Хэш (hash) релиза: 1e0d5e56d1d4f6134567342ec2b5e4db60a8f736

Еще никто не оставлял запись к записи скачать торрент Joe Henderson - Mode For Joe - 1966, FLAC . Будь первым!

!Обратная связь